  0
SECTION
  2
HEADER
  9
$ACADVER
  1
AC1015
  9
$ACADMAINTVER
 70
    20
  9
$DWGCODEPAGE
  3
ANSI_932
  9
$INSBASE
 10
0.0
 20
0.0
 30
0.0
  9
$EXTMIN
 10
-124.0865510674271
 20
-129.8750821827745
 30
0.0
  9
$EXTMAX
 10
188.9442618160562
 20
76.65036774345826
 30
0.0
  9
$LIMMIN
 10
-210.0
 20
-148.5
  9
$LIMMAX
 10
210.0
 20
148.5
  9
$ORTHOMODE
 70
     0
  9
$REGENMODE
 70
     1
  9
$FILLMODE
 70
     1
  9
$QTEXTMODE
 70
     0
  9
$MIRRTEXT
 70
     1
  9
$LTSCALE
 40
0.25
  9
$ATTMODE
 70
     1
  9
$TEXTSIZE
 40
0.2
  9
$TRACEWID
 40
0.05
  9
$TEXTSTYLE
  7
STANDARD
  9
$CLAYER
  8
0
  9
$CELTYPE
  6
ByLayer
  9
$CECOLOR
 62
   256
  9
$CELTSCALE
 40
1.0
  9
$DISPSILH
 70
     0
  9
$DIMSCALE
 40
1.0
  9
$DIMASZ
 40
2.000107526779175
  9
$DIMEXO
 40
1.0
  9
$DIMDLI
 40
10.0
  9
$DIMRND
 40
0.0
  9
$DIMDLE
 40
0.0
  9
$DIMEXE
 40
1.0
  9
$DIMTP
 40
0.0
  9
$DIMTM
 40
0.0
  9
$DIMTXT
 40
3.5
  9
$DIMCEN
 40
0.0
  9
$DIMTSZ
 40
0.0
  9
$DIMTOL
 70
     0
  9
$DIMLIM
 70
     0
  9
$DIMTIH
 70
     0
  9
$DIMTOH
 70
     0
  9
$DIMSE1
 70
     0
  9
$DIMSE2
 70
     0
  9
$DIMTAD
 70
     1
  9
$DIMZIN
 70
     8
  9
$DIMBLK
  1

  9
$DIMASO
 70
     1
  9
$DIMSHO
 70
     1
  9
$DIMPOST
  1

  9
$DIMAPOST
  1

  9
$DIMALT
 70
     0
  9
$DIMALTD
 70
     2
  9
$DIMALTF
 40
25.4
  9
$DIMLFAC
 40
1.0
  9
$DIMTOFL
 70
     0
  9
$DIMTVP
 40
0.0
  9
$DIMTIX
 70
     0
  9
$DIMSOXD
 70
     0
  9
$DIMSAH
 70
     0
  9
$DIMBLK1
  1

  9
$DIMBLK2
  1

  9
$DIMSTYLE
  2
STANDARD
  9
$DIMCLRD
 70
     0
  9
$DIMCLRE
 70
     0
  9
$DIMCLRT
 70
     0
  9
$DIMTFAC
 40
0.65
  9
$DIMGAP
 40
0.09
  9
$DIMJUST
 70
     0
  9
$DIMSD1
 70
     0
  9
$DIMSD2
 70
     0
  9
$DIMTOLJ
 70
     1
  9
$DIMTZIN
 70
     0
  9
$DIMALTZ
 70
     0
  9
$DIMALTTZ
 70
     0
  9
$DIMUPT
 70
     0
  9
$DIMDEC
 70
     4
  9
$DIMTDEC
 70
     4
  9
$DIMALTU
 70
     2
  9
$DIMALTTD
 70
     2
  9
$DIMTXSTY
  7
STANDARD
  9
$DIMAUNIT
 70
     0
  9
$DIMADEC
 70
     0
  9
$DIMALTRND
 40
0.0
  9
$DIMAZIN
 70
     0
  9
$DIMDSEP
 70
    46
  9
$DIMATFIT
 70
     3
  9
$DIMFRAC
 70
     0
  9
$DIMLDRBLK
  1

  9
$DIMLUNIT
 70
     2
  9
$DIMLWD
 70
    -2
  9
$DIMLWE
 70
    -2
  9
$DIMTMOVE
 70
     0
  9
$LUNITS
 70
     2
  9
$LUPREC
 70
     4
  9
$SKETCHINC
 40
0.1
  9
$FILLETRAD
 40
0.5
  9
$AUNITS
 70
     0
  9
$AUPREC
 70
     0
  9
$MENU
  1
.
  9
$ELEVATION
 40
0.0
  9
$PELEVATION
 40
0.0
  9
$THICKNESS
 40
0.0
  9
$LIMCHECK
 70
     0
  9
$CHAMFERA
 40
0.5
  9
$CHAMFERB
 40
0.5
  9
$CHAMFERC
 40
0.0
  9
$CHAMFERD
 40
0.0
  9
$SKPOLY
 70
     0
  9
$TDCREATE
 40
2457457.490371713
  9
$TDUCREATE
 40
2457457.115371713
  9
$TDUPDATE
 40
2457459.367019398
  9
$TDUUPDATE
 40
2457458.992019398
  9
$TDINDWG
 40
0.0001073958
  9
$TDUSRTIMER
 40
0.0001073843
  9
$USRTIMER
 70
     1
  9
$ANGBASE
 50
0.0
  9
$ANGDIR
 70
     0
  9
$PDMODE
 70
     0
  9
$PDSIZE
 40
1.0
  9
$PLINEWID
 40
0.0
  9
$SPLFRAME
 70
     0
  9
$SPLINETYPE
 70
     6
  9
$SPLINESEGS
 70
     8
  9
$HANDSEED
  5
4CA
  9
$SURFTAB1
 70
     6
  9
$SURFTAB2
 70
     6
  9
$SURFTYPE
 70
     6
  9
$SURFU
 70
     6
  9
$SURFV
 70
     6
  9
$UCSBASE
  2

  9
$UCSNAME
  2

  9
$UCSORG
 10
0.0
 20
0.0
 30
0.0
  9
$UCSXDIR
 10
1.0
 20
0.0
 30
0.0
  9
$UCSYDIR
 10
0.0
 20
1.0
 30
0.0
  9
$UCSORTHOREF
  2

  9
$UCSORTHOVIEW
 70
     0
  9
$UCSORGTOP
 10
0.0
 20
0.0
 30
0.0
  9
$UCSORGBOTTOM
 10
0.0
 20
0.0
 30
0.0
  9
$UCSORGLEFT
 10
0.0
 20
0.0
 30
0.0
  9
$UCSORGRIGHT
 10
0.0
 20
0.0
 30
0.0
  9
$UCSORGFRONT
 10
0.0
 20
0.0
 30
0.0
  9
$UCSORGBACK
 10
0.0
 20
0.0
 30
0.0
  9
$PUCSBASE
  2

  9
$PUCSNAME
  2

  9
$PUCSORG
 10
0.0
 20
0.0
 30
0.0
  9
$PUCSXDIR
 10
1.0
 20
0.0
 30
0.0
  9
$PUCSYDIR
 10
0.0
 20
1.0
 30
0.0
  9
$PUCSORTHOREF
  2

  9
$PUCSORTHOVIEW
 70
     0
  9
$PUCSORGTOP
 10
0.0
 20
0.0
 30
0.0
  9
$PUCSORGBOTTOM
 10
0.0
 20
0.0
 30
0.0
  9
$PUCSORGLEFT
 10
0.0
 20
0.0
 30
0.0
  9
$PUCSORGRIGHT
 10
0.0
 20
0.0
 30
0.0
  9
$PUCSORGFRONT
 10
0.0
 20
0.0
 30
0.0
  9
$PUCSORGBACK
 10
0.0
 20
0.0
 30
0.0
  9
$USERI1
 70
     0
  9
$USERI2
 70
     0
  9
$USERI3
 70
     0
  9
$USERI4
 70
     0
  9
$USERI5
 70
     0
  9
$USERR1
 40
0.0
  9
$USERR2
 40
0.0
  9
$USERR3
 40
0.0
  9
$USERR4
 40
0.0
  9
$USERR5
 40
0.0
  9
$WORLDVIEW
 70
     1
  9
$SHADEDGE
 70
     3
  9
$SHADEDIF
 70
    70
  9
$TILEMODE
 70
     1
  9
$MAXACTVP
 70
    64
  9
$PINSBASE
 10
0.0
 20
0.0
 30
0.0
  9
$PLIMCHECK
 70
     0
  9
$PEXTMIN
 10
1.000000000000000E+20
 20
1.000000000000000E+20
 30
1.000000000000000E+20
  9
$PEXTMAX
 10
-1.000000000000000E+20
 20
-1.000000000000000E+20
 30
-1.000000000000000E+20
  9
$PLIMMIN
 10
0.0
 20
0.0
  9
$PLIMMAX
 10
12.0
 20
9.0
  9
$UNITMODE
 70
     0
  9
$VISRETAIN
 70
     0
  9
$PLINEGEN
 70
     1
  9
$PSLTSCALE
 70
     0
  9
$TREEDEPTH
 70
  3020
  9
$CMLSTYLE
  2
Standard
  9
$CMLJUST
 70
     0
  9
$CMLSCALE
 40
1.0
  9
$PROXYGRAPHICS
 70
     1
  9
$MEASUREMENT
 70
     0
  9
$CELWEIGHT
370
    -1
  9
$ENDCAPS
280
     0
  9
$JOINSTYLE
280
     0
  9
$LWDISPLAY
290
     0
  9
$INSUNITS
 70
     0
  9
$HYPERLINKBASE
  1

  9
$STYLESHEET
  1

  9
$XEDIT
290
     1
  9
$CEPSNTYPE
380
     0
  9
$PSTYLEMODE
290
     1
  9
$FINGERPRINTGUID
  2
{D4A49E8E-B5B3-4A58-AD6F-AAD369C7EF67}
  9
$VERSIONGUID
  2
{4A048E25-7B5C-4EA4-93B3-D60CE44C844C}
  9
$EXTNAMES
290
     1
  9
$PSVPSCALE
 40
0.0
  9
$OLESTARTUP
290
     0
  0
ENDSEC
  0
SECTION
  2
CLASSES
  0
CLASS
  1
ACDBDICTIONARYWDFLT
  2
AcDbDictionaryWithDefault
  3
ObjectDBX Classes
 90
        0
280
     0
281
     0
  0
CLASS
  1
MATERIAL
  2
AcDbMaterial
  3
ObjectDBX Classes
 90
     1153
280
     0
281
     0
  0
CLASS
  1
VISUALSTYLE
  2
AcDbVisualStyle
  3
ObjectDBX Classes
 90
     4095
280
     0
281
     0
  0
CLASS
  1
SCALE
  2
AcDbScale
  3
ObjectDBX Classes
 90
     1153
280
     0
281
     0
  0
CLASS
  1
TABLESTYLE
  2
AcDbTableStyle
  3
ObjectDBX Classes
 90
     4095
280
     0
281
     0
  0
CLASS
  1
MLEADERSTYLE
  2
AcDbMLeaderStyle
  3
ACDB_MLEADERSTYLE_CLASS
 90
     4095
280
     0
281
     0
  0
CLASS
  1
ACDBSECTIONVIEWSTYLE
  2
AcDbSectionViewStyle
  3
ObjectDBX Classes
 90
     1025
280
     0
281
     0
  0
CLASS
  1
ACDBDETAILVIEWSTYLE
  2
AcDbDetailViewStyle
  3
ObjectDBX Classes
 90
     1025
280
     0
281
     0
  0
CLASS
  1
AMGSETTINGSOBJ
  2
AmgSettingsObj
  3
"AcadM|Product Description: AutoCAD Mechanical|Company: Autodesk, Inc."
 90
     1024
280
     0
281
     0
  0
CLASS
  1
ACME_DOCUMENT
  2
AcMeDbDoc
  3
AcMeServices
 90
     1024
280
     0
281
     0
  0
CLASS
  1
ACMESCOPE
  2
AcMeScope
  3
AcMeServices
 90
     1024
280
     0
281
     0
  0
CLASS
  1
ACMECOMMANDHISTORY
  2
AcMeCommandHistory
  3
AcMeServices
 90
     1024
280
     0
281
     0
  0
CLASS
  1
ACIMSYSVARMAN
  2
AcImSysVarManager
  3
AcMeServices
 90
     1024
280
     0
281
     0
  0
CLASS
  1
ACIMINTSYSVAR
  2
AcImIntSysVar
  3
AcMeServices
 90
     1024
280
     0
281
     0
  0
CLASS
  1
ACMESTATEMGR
  2
AcMeStateMgr
  3
AcMeServices
 90
     1024
280
     0
281
     0
  0
CLASS
  1
ACDBENTITYCACHE
  2
AcMeEntityCache
  3
AcMeServices
 90
     1024
280
     0
281
     0
  0
CLASS
  1
ACGREFMASTER
  2
AcGrefMaster
  3
AcAttribServices
 90
     1024
280
     0
281
     0
  0
CLASS
  1
ACME_DATABASE
  2
AcMeDbDatabase
  3
AcMeServices
 90
     1024
280
     0
281
     0
  0
CLASS
  1
ACRFINSADJUSTERMGR
  2
AcRfInsAdjusterMgr
  3
AcMeServices
 90
     1024
280
     0
281
     0
  0
CLASS
  1
ACGREFACADMASTER
  2
AcGrefacadMaster
  3
AcGrefServices
 90
     1024
280
     0
281
     0
  0
CLASS
  1
AMDTMENUSTATEMGR
  2
AmdtMenuStateMgr
  3
McadcomServices
 90
     1024
280
     0
281
     0
  0
CLASS
  1
AMDTMCOMMENUSTATE
  2
AmdtMcomMenuState
  3
McadcomServices
 90
     1024
280
     0
281
     0
  0
CLASS
  1
AMIMASTER
  2
AmiMaster
  3
AmiServices
 90
     1024
280
     0
281
     0
  0
CLASS
  1
MAPIAMMOUDLE
  2
MApiAmModule
  3
MApiAmServices
 90
     1024
280
     0
281
     0
  0
CLASS
  1
ACIMSTRSYSVAR
  2
AcImStrSysVar
  3
AcMeServices
 90
     1024
280
     0
281
     0
  0
CLASS
  1
AMDTAMMENUSTATE
  2
AmdtAmMenuState
  3
DesignerAssemblies
 90
     1024
280
     0
281
     0
  0
CLASS
  1
ACAMPROJECT
  2
AcAmProject
  3
DesignerAssemblies
 90
     1024
280
     0
281
     0
  0
CLASS
  1
ACAMGRCOMPDEF
  2
AcAmGrCompDef
  3
DesignerAssemblies
 90
     1024
280
     0
281
     0
  0
CLASS
  1
ACAMCOMPDEF
  2
AcAmCompDef
  3
DesignerAssemblies
 90
     1024
280
     0
281
     0
  0
CLASS
  1
ACAMCOMPDEFMGR
  2
AcAmCompDefMgr
  3
DesignerAssemblies
 90
     1024
280
     0
281
     0
  0
CLASS
  1
AMCONTEXTMGR
  2
AcAmContextMgr
  3
DesignerAssemblies
 90
     1024
280
     0
281
     0
  0
CLASS
  1
ACAMCONTEXTMODELER
  2
AcAmContextModeler
  3
DesignerAssemblies
 90
     1024
280
     0
281
     0
  0
CLASS
  1
ACMDATADICTIONARY
  2
AcmDataDictionary
  3
"AcmSymBB|Product Description: AutoCAD Mechanical|Company: Autodesk, Inc."
 90
     1024
280
     0
281
     0
  0
CLASS
  1
ACAMGRCOMPDEFSET
  2
AcAmGrCompDefSet
  3
DesignerAssemblies
 90
     1024
280
     0
281
     0
  0
CLASS
  1
AMDTBROWSERDBTAB
  2
AmdtBrowserDbTab
  3
McadcomServices
 90
     1024
280
     0
281
     0
  0
CLASS
  1
CBROWSERAPPOBJECT
  2
CBrowserAppObject
  3
McadcomServices
 90
     1024
280
     0
281
     0
  0
CLASS
  1
DM_PLACEHOLDER
  2
AcDmSelsetPlaceholder
  3
McadcomServices
 90
     1024
280
     0
281
     0
  0
CLASS
  1
ACMSTANDARDANSI
  2
AcmStandardANSI
  3
"Amdt_StdImp|Product Description: AutoCAD Mechanical|Company: Autodesk, Inc."
 90
     1024
280
     0
281
     0
  0
CLASS
  1
ACMSURFSTANDARDANSI
  2
AcmSurfTextStdANSI
  3
"Amdt_StdImp|Product Description: AutoCAD Mechanical|Company: Autodesk, Inc."
 90
     1024
280
     0
281
     0
  0
CLASS
  1
ACMFCFSTANDARDANSI
  2
AcmFCFStdANSI
  3
"Amdt_StdImp|Product Description: AutoCAD Mechanical|Company: Autodesk, Inc."
 90
     1024
280
     0
281
     0
  0
CLASS
  1
ACMWELDSTANDARDANSI
  2
AcmWeldingStdANSI
  3
"Amdt_StdImp|Product Description: AutoCAD Mechanical|Company: Autodesk, Inc."
 90
     1024
280
     0
281
     0
  0
CLASS
  1
ACMIDSTANDARDANSI
  2
AcmIdStdANSI
  3
"Amdt_StdImp|Product Description: AutoCAD Mechanical|Company: Autodesk, Inc."
 90
     1024
280
     0
281
     0
  0
CLASS
  1
ACMDATUMSTANDARDANSI
  2
AcmDatumStdANSI
  3
"Amdt_StdImp|Product Description: AutoCAD Mechanical|Company: Autodesk, Inc."
 90
     1024
280
     0
281
     0
  0
CLASS
  1
ACMBOMSTANDARDANSI
  2
AcmBOMStdANSI
  3
"Amdt_StdImp|Product Description: AutoCAD Mechanical|Company: Autodesk, Inc."
 90
     1024
280
     0
281
     0
  0
CLASS
  1
ACMDETAILSTANDARDANSI
  2
AmdtDetailSymStdANSI
  3
"Amdt_StdImp|Product Description: AutoCAD Mechanical|Company: Autodesk, Inc."
 90
     1024
280
     0
281
     0
  0
CLASS
  1
ACMSECTIONSTANDARDANSI
  2
AmdtSectionSymStdANSI
  3
"Amdt_StdImp|Product Description: AutoCAD Mechanical|Company: Autodesk, Inc."
 90
     1024
280
     0
281
     0
  0
CLASS
  1
ACMCENTERLINESTANDARDANSI
  2
AmdtCenterLineStdANSI
  3
"Amdt_StdImp|Product Description: AutoCAD Mechanical|Company: Autodesk, Inc."
 90
     1024
280
     0
281
     0
  0
CLASS
  1
ACMTHREADLINESTANDARDANSI
  2
AmdtThreadLineStdANSI
  3
"Amdt_StdImp|Product Description: AutoCAD Mechanical|Company: Autodesk, Inc."
 90
     1024
280
     0
281
     0
  0
CLASS
  1
ACMNOTESTANDARDANSI
  2
AmdtNoteStdANSI
  3
"Amdt_StdImp|Product Description: AutoCAD Mechanical|Company: Autodesk, Inc."
 90
     1024
280
     0
281
     0
  0
CLASS
  1
ACMTAPERSTANDARDANSI
  2
AcmTaperStdANSI
  3
"Amdt_StdImp|Product Description: AutoCAD Mechanical|Company: Autodesk, Inc."
 90
     1024
280
     0
281
     0
  0
CLASS
  1
ACMANOOTATIONVIEWSTANDARDANSI
  2
AmdtAnViewStdANSI
  3
"Amdt_StdImp|Product Description: AutoCAD Mechanical|Company: Autodesk, Inc."
 90
     1024
280
     0
281
     0
  0
CLASS
  1
ACAMGLAYSTD
  2
AcAmgLayStd
  3
"AmgLay|Product Description: AutoCAD Mechanical|Company: Autodesk, Inc."
 90
     1024
280
     0
281
     0
  0
CLASS
  1
ACAMGDIMSTD
  2
AcAmgDimStd
  3
"AmgDim|Product Description: AutoCAD Mechanical|Company: Autodesk, Inc."
 90
     1024
280
     0
281
     0
  0
CLASS
  1
AMGOBJPROPCFG
  2
AmgObjPropCfg
  3
"AmgLay|Product Description: AutoCAD Mechanical|Company: Autodesk, Inc."
 90
     1024
280
     0
281
     0
  0
CLASS
  1
ACAMGHOLECHARTSTDANSI
  2
AcAmgHoleChartStdANSI
  3
AmgDim|Product Description: AutoCAD Mechanical|Company: Autodesk, Inc.
 90
     1024
280
     0
281
     0
  0
CLASS
  1
ACAMGTITLESTD
  2
AcAmgTitleStd
  3
"AmgTitle|Product Description: AutoCAD Mechanical|Company: Autodesk, Inc."
 90
     1024
280
     0
281
     0
  0
CLASS
  1
ACMSECTIONSTANDARDCUSTOM
  2
AmdtSectionSymStdCustom
  3
"Amdt_StdImp|Product Description: AutoCAD Mechanical|Company: Autodesk, Inc."
 90
     1024
280
     0
281
     0
  0
CLASS
  1
ACMDETAILTANDARDCUSTOM
  2
AmdtDetailSymStdCustom
  3
"Amdt_StdImp|Product Description: AutoCAD Mechanical|Company: Autodesk, Inc."
 90
     1024
280
     0
281
     0
  0
CLASS
  1
FIELD
  2
AcDbField
  3
ObjectDBX Classes
 90
     1152
280
     0
281
     0
  0
CLASS
  1
FIELDLIST
  2
AcDbFieldList
  3
ObjectDBX Classes
 90
     1152
280
     0
281
     0
  0
CLASS
  1
AMDTNOTETEMPLATEDB
  2
AmdtNoteTemplateDB
  3
AcmSymBB|Product Description: AutoCAD Mechanical|Company: Autodesk, Inc.
 90
     1024
280
     0
281
     0
  0
CLASS
  1
DICTIONARYVAR
  2
AcDbDictionaryVar
  3
ObjectDBX Classes
 90
        0
280
     0
281
     0
  0
CLASS
  1
CELLSTYLEMAP
  2
AcDbCellStyleMap
  3
ObjectDBX Classes
 90
     1152
280
     0
281
     0
  0
CLASS
  1
ACDBPLACEHOLDER
  2
AcDbPlaceHolder
  3
ObjectDBX Classes
 90
        0
280
     0
281
     0
  0
CLASS
  1
LAYOUT
  2
AcDbLayout
  3
ObjectDBX Classes
 90
        0
280
     0
281
     0
  0
ENDSEC
  0
SECTION
  2
TABLES
  0
TABLE
  2
VPORT
  5
320
330
0
100
AcDbSymbolTable
 70
     1
  0
VPORT
  5
38B
330
320
100
AcDbSymbolTableRecord
100
AcDbViewportTableRecord
  2
*ACTIVE
 70
     0
 10
0.0
 20
0.0
 11
1.0
 21
1.0
 12
177.0980656585967
 22
-24.26998809825716
 13
0.0
 23
0.0
 14
0.5
 24
0.5
 15
0.5
 25
0.5
 16
0.0
 26
0.0
 36
1.0
 17
0.0
 27
0.0
 37
0.0
 40
325.8151971243276
 41
2.485564304461942
 42
50.0
 43
0.0
 44
0.0
 50
0.0
 51
0.0
 71
     0
 72
  1000
 73
     1
 74
     1
 75
     0
 76
     0
 77
     0
 78
     0
281
     0
 65
     0
110
0.0
120
0.0
130
0.0
111
1.0
121
0.0
131
0.0
112
0.0
122
1.0
132
0.0
 79
     0
146
0.0
1001
ACAD_NAV_VCDISPLAY
1070
     3
  0
ENDTAB
  0
TABLE
  2
LTYPE
  5
31D
330
0
100
AcDbSymbolTable
 70
    63
  0
LTYPE
  5
372
330
31D
100
AcDbSymbolTableRecord
100
AcDbLinetypeTableRecord
  2
ByBlock
 70
     0
  3

 72
    65
 73
     0
 40
0.0
  0
LTYPE
  5
373
330
31D
100
AcDbSymbolTableRecord
100
AcDbLinetypeTableRecord
  2
ByLayer
 70
     0
  3

 72
    65
 73
     0
 40
0.0
  0
LTYPE
  5
374
330
31D
100
AcDbSymbolTableRecord
100
AcDbLinetypeTableRecord
  2
CONTINUOUS
 70
     0
  3
Solid line
 72
    65
 73
     0
 40
0.0
  0
LTYPE
  5
38C
330
31D
100
AcDbSymbolTableRecord
100
AcDbLinetypeTableRecord
  2
HIDDENX2
 70
     0
  3
Hidden (2x) ____ ____ ____ ____ ____ ____ ____ 
 72
    65
 73
     2
 40
19.05
 49
12.7
 74
     0
 49
-6.349999999999999
 74
     0
  0
LTYPE
  5
38D
330
31D
100
AcDbSymbolTableRecord
100
AcDbLinetypeTableRecord
  2
HIDDEN
 70
     0
  3
Hidden __ __ __ __ __ __ __ __ __ __ __ __ __ __
 72
    65
 73
     2
 40
9.525
 49
6.349999999999999
 74
     0
 49
-3.174999999999999
 74
     0
  0
LTYPE
  5
38E
330
31D
100
AcDbSymbolTableRecord
100
AcDbLinetypeTableRecord
  2
HIDDEN2
 70
     0
  3
Hidden (.5x) _ _ _ _ _ _ _ _ _ _ _ _ _ _ _ _ _ 
 72
    65
 73
     2
 40
4.762499999999998
 49
3.174999999999999
 74
     0
 49
-1.587499999999999
 74
     0
  0
LTYPE
  5
38F
330
31D
100
AcDbSymbolTableRecord
100
AcDbLinetypeTableRecord
  2
DASHED
 70
     0
  3
Dashed __ __ __ __ __ __ __ __ __ __ __ __ __ _
 72
    65
 73
     2
 40
19.05
 49
12.7
 74
     0
 49
-6.349999999999999
 74
     0
  0
LTYPE
  5
390
330
31D
100
AcDbSymbolTableRecord
100
AcDbLinetypeTableRecord
  2
DASHED2
 70
     0
  3
Dashed (.5x) _ _ _ _ _ _ _ _ _ _ _ _ _ _ _ _ _ 
 72
    65
 73
     2
 40
9.525
 49
6.349999999999999
 74
     0
 49
-3.174999999999999
 74
     0
  0
LTYPE
  5
391
330
31D
100
AcDbSymbolTableRecord
100
AcDbLinetypeTableRecord
  2
DASHEDX2
 70
     0
  3
Dashed (2x) ____  ____  ____  ____  ____  ___
 72
    65
 73
     2
 40
38.09999999999999
 49
25.4
 74
     0
 49
-12.7
 74
     0
  0
LTYPE
  5
392
330
31D
100
AcDbSymbolTableRecord
100
AcDbLinetypeTableRecord
  2
DOTX2
 70
     0
  3
Dot (2x) .  .  .  .  .  .  .  .  .  .  .  .  .  .
 72
    65
 73
     2
 40
12.7
 49
0.0
 74
     0
 49
-12.7
 74
     0
  0
LTYPE
  5
393
330
31D
100
AcDbSymbolTableRecord
100
AcDbLinetypeTableRecord
  2
DOT
 70
     0
  3
Dot . . . . . . . . . . . . . . . . . . . . . . . .
 72
    65
 73
     2
 40
6.349999999999999
 49
0.0
 74
     0
 49
-6.349999999999999
 74
     0
  0
LTYPE
  5
394
330
31D
100
AcDbSymbolTableRecord
100
AcDbLinetypeTableRecord
  2
DOT2
 70
     0
  3
Dot (.5x) ........................................
 72
    65
 73
     2
 40
3.174999999999999
 49
0.0
 74
     0
 49
-3.174999999999999
 74
     0
  0
LTYPE
  5
395
330
31D
100
AcDbSymbolTableRecord
100
AcDbLinetypeTableRecord
  2
CENTERX2
 70
     0
  3
Center (2x) ________  __  ________  __  _____
 72
    65
 73
     4
 40
101.6
 49
63.5
 74
     0
 49
-12.7
 74
     0
 49
12.7
 74
     0
 49
-12.7
 74
     0
  0
LTYPE
  5
396
330
31D
100
AcDbSymbolTableRecord
100
AcDbLinetypeTableRecord
  2
CENTER
 70
     0
  3
Center ____ _ ____ _ ____ _ ____ _ ____ _ ____
 72
    65
 73
     4
 40
50.8
 49
31.75
 74
     0
 49
-6.349999999999999
 74
     0
 49
6.349999999999999
 74
     0
 49
-6.349999999999999
 74
     0
  0
LTYPE
  5
397
330
31D
100
AcDbSymbolTableRecord
100
AcDbLinetypeTableRecord
  2
CENTER2
 70
     0
  3
Center (.5x) ___ _ ___ _ ___ _ ___ _ ___ _ ___
 72
    65
 73
     4
 40
28.575
 49
19.05
 74
     0
 49
-3.174999999999999
 74
     0
 49
3.174999999999999
 74
     0
 49
-3.174999999999999
 74
     0
  0
LTYPE
  5
398
330
31D
100
AcDbSymbolTableRecord
100
AcDbLinetypeTableRecord
  2
DASHDOTX2
 70
     0
  3
Dash dot (2x) ____  .  ____  .  ____  .  ___
 72
    65
 73
     4
 40
50.8
 49
25.4
 74
     0
 49
-12.7
 74
     0
 49
0.0
 74
     0
 49
-12.7
 74
     0
  0
LTYPE
  5
399
330
31D
100
AcDbSymbolTableRecord
100
AcDbLinetypeTableRecord
  2
DASHDOT
 70
     0
  3
Dash dot __ . __ . __ . __ . __ . __ . __ . __
 72
    65
 73
     4
 40
25.4
 49
12.7
 74
     0
 49
-6.349999999999999
 74
     0
 49
0.0
 74
     0
 49
-6.349999999999999
 74
     0
  0
LTYPE
  5
39A
330
31D
100
AcDbSymbolTableRecord
100
AcDbLinetypeTableRecord
  2
DASHDOT2
 70
     0
  3
Dash dot (.5x) _._._._._._._._._._._._._._._.
 72
    65
 73
     4
 40
12.7
 49
6.349999999999999
 74
     0
 49
-3.174999999999999
 74
     0
 49
0.0
 74
     0
 49
-3.174999999999999
 74
     0
  0
LTYPE
  5
39B
330
31D
100
AcDbSymbolTableRecord
100
AcDbLinetypeTableRecord
  2
DIVIDEX2
 70
     0
  3
Divide (2x) ________  .  .  ________  .  .  _
 72
    65
 73
     6
 40
63.5
 49
25.4
 74
     0
 49
-12.7
 74
     0
 49
0.0
 74
     0
 49
-12.7
 74
     0
 49
0.0
 74
     0
 49
-12.7
 74
     0
  0
LTYPE
  5
39C
330
31D
100
AcDbSymbolTableRecord
100
AcDbLinetypeTableRecord
  2
DIVIDE
 70
     0
  3
Divide ____ . . ____ . . ____ . . ____ . . ____
 72
    65
 73
     6
 40
31.75
 49
12.7
 74
     0
 49
-6.349999999999999
 74
     0
 49
0.0
 74
     0
 49
-6.349999999999999
 74
     0
 49
0.0
 74
     0
 49
-6.349999999999999
 74
     0
  0
LTYPE
  5
39D
330
31D
100
AcDbSymbolTableRecord
100
AcDbLinetypeTableRecord
  2
DIVIDE2
 70
     0
  3
Divide (.5x) __..__..__..__..__..__..__..__.._
 72
    65
 73
     6
 40
15.875
 49
6.349999999999999
 74
     0
 49
-3.174999999999999
 74
     0
 49
0.0
 74
     0
 49
-3.174999999999999
 74
     0
 49
0.0
 74
     0
 49
-3.174999999999999
 74
     0
  0
LTYPE
  5
39E
330
31D
100
AcDbSymbolTableRecord
100
AcDbLinetypeTableRecord
  2
BORDERX2
 70
     0
  3
Border (2x) ____  ____  .  ____  ____  .  ___
 72
    65
 73
     6
 40
88.89999999999998
 49
25.4
 74
     0
 49
-12.7
 74
     0
 49
25.4
 74
     0
 49
-12.7
 74
     0
 49
0.0
 74
     0
 49
-12.7
 74
     0
  0
LTYPE
  5
39F
330
31D
100
AcDbSymbolTableRecord
100
AcDbLinetypeTableRecord
  2
BORDER
 70
     0
  3
Border __ __ . __ __ . __ __ . __ __ . __ __ .
 72
    65
 73
     6
 40
44.45
 49
12.7
 74
     0
 49
-6.349999999999999
 74
     0
 49
12.7
 74
     0
 49
-6.349999999999999
 74
     0
 49
0.0
 74
     0
 49
-6.349999999999999
 74
     0
  0
LTYPE
  5
3A0
330
31D
100
AcDbSymbolTableRecord
100
AcDbLinetypeTableRecord
  2
BORDER2
 70
     0
  3
Border (.5x) __.__.__.__.__.__.__.__.__.__.__.
 72
    65
 73
     6
 40
22.225
 49
6.349999999999999
 74
     0
 49
-3.174999999999999
 74
     0
 49
6.349999999999999
 74
     0
 49
-3.174999999999999
 74
     0
 49
0.0
 74
     0
 49
-3.174999999999999
 74
     0
  0
LTYPE
  5
3A1
330
31D
100
AcDbSymbolTableRecord
100
AcDbLinetypeTableRecord
  2
PHANTOMX2
 70
     0
  3
Phantom (2x) ____________    ____    ____   _
 72
    65
 73
     6
 40
127.0
 49
63.5
 74
     0
 49
-12.7
 74
     0
 49
12.7
 74
     0
 49
-12.7
 74
     0
 49
12.7
 74
     0
 49
-12.7
 74
     0
  0
LTYPE
  5
3A2
330
31D
100
AcDbSymbolTableRecord
100
AcDbLinetypeTableRecord
  2
PHANTOM
 70
     0
  3
Phantom ______  __  __  ______  __  __  ______ 
 72
    65
 73
     6
 40
63.5
 49
31.75
 74
     0
 49
-6.349999999999999
 74
     0
 49
6.349999999999999
 74
     0
 49
-6.349999999999999
 74
     0
 49
6.349999999999999
 74
     0
 49
-6.349999999999999
 74
     0
  0
LTYPE
  5
3A3
330
31D
100
AcDbSymbolTableRecord
100
AcDbLinetypeTableRecord
  2
PHANTOM2
 70
     0
  3
Phantom (.5x) ___ _ _ ___ _ _ ___ _ _ ___ _ _
 72
    65
 73
     6
 40
31.75
 49
15.875
 74
     0
 49
-3.174999999999999
 74
     0
 49
3.174999999999999
 74
     0
 49
-3.174999999999999
 74
     0
 49
3.174999999999999
 74
     0
 49
-3.174999999999999
 74
     0
  0
LTYPE
  5
3A4
330
31D
100
AcDbSymbolTableRecord
100
AcDbLinetypeTableRecord
  2
ACAD_ISO06W100
 70
     0
  3
ISO long-dash triple-dot ____ ... ____ ... ____
 72
    65
 73
     8
 40
36.0
 49
24.0
 74
     0
 49
-3.0
 74
     0
 49
0.0
 74
     0
 49
-3.0
 74
     0
 49
0.0
 74
     0
 49
-3.0
 74
     0
 49
0.0
 74
     0
 49
-3.0
 74
     0
  0
LTYPE
  5
3A5
330
31D
100
AcDbSymbolTableRecord
100
AcDbLinetypeTableRecord
  2
ACAD_ISO13W100
 70
     0
  3
ISO double-dash double-dot __ __ . . __ __ . . _
 72
    65
 73
     8
 40
36.0
 49
12.0
 74
     0
 49
-3.0
 74
     0
 49
12.0
 74
     0
 49
-3.0
 74
     0
 49
0.0
 74
     0
 49
-3.0
 74
     0
 49
0.0
 74
     0
 49
-3.0
 74
     0
  0
LTYPE
  5
3A6
330
31D
100
AcDbSymbolTableRecord
100
AcDbLinetypeTableRecord
  2
ACAD_ISO14W100
 70
     0
  3
ISO dash triple-dot __ . . . __ . . . __ . . . _
 72
    65
 73
     8
 40
24.0
 49
12.0
 74
     0
 49
-3.0
 74
     0
 49
0.0
 74
     0
 49
-3.0
 74
     0
 49
0.0
 74
     0
 49
-3.0
 74
     0
 49
0.0
 74
     0
 49
-3.0
 74
     0
  0
LTYPE
  5
3A7
330
31D
100
AcDbSymbolTableRecord
100
AcDbLinetypeTableRecord
  2
ACAD_ISO02W100
 70
     0
  3
ISO dash __ __ __ __ __ __ __ __ __ __ __ __ __
 72
    65
 73
     2
 40
15.0
 49
12.0
 74
     0
 49
-3.0
 74
     0
  0
LTYPE
  5
3A8
330
31D
100
AcDbSymbolTableRecord
100
AcDbLinetypeTableRecord
  2
ACAD_ISO03W100
 70
     0
  3
ISO dash space __    __    __    __    __    __
 72
    65
 73
     2
 40
30.0
 49
12.0
 74
     0
 49
-18.0
 74
     0
  0
LTYPE
  5
3A9
330
31D
100
AcDbSymbolTableRecord
100
AcDbLinetypeTableRecord
  2
ACAD_ISO04W100
 70
     0
  3
ISO long-dash dot ____ . ____ . ____ . ____ . _
 72
    65
 73
     4
 40
30.0
 49
24.0
 74
     0
 49
-3.0
 74
     0
 49
0.0
 74
     0
 49
-3.0
 74
     0
  0
LTYPE
  5
3AA
330
31D
100
AcDbSymbolTableRecord
100
AcDbLinetypeTableRecord
  2
ACAD_ISO05W100
 70
     0
  3
ISO long-dash double-dot ____ .. ____ .. ____ . 
 72
    65
 73
     6
 40
33.0
 49
24.0
 74
     0
 49
-3.0
 74
     0
 49
0.0
 74
     0
 49
-3.0
 74
     0
 49
0.0
 74
     0
 49
-3.0
 74
     0
  0
LTYPE
  5
3AB
330
31D
100
AcDbSymbolTableRecord
100
AcDbLinetypeTableRecord
  2
ACAD_ISO07W100
 70
     0
  3
ISO dot . . . . . . . . . . . . . . . . . . . . 
 72
    65
 73
     2
 40
3.0
 49
0.0
 74
     0
 49
-3.0
 74
     0
  0
LTYPE
  5
3AC
330
31D
100
AcDbSymbolTableRecord
100
AcDbLinetypeTableRecord
  2
ACAD_ISO08W100
 70
     0
  3
ISO long-dash short-dash ____ __ ____ __ ____ _
 72
    65
 73
     4
 40
36.0
 49
24.0
 74
     0
 49
-3.0
 74
     0
 49
6.0
 74
     0
 49
-3.0
 74
     0
  0
LTYPE
  5
3AD
330
31D
100
AcDbSymbolTableRecord
100
AcDbLinetypeTableRecord
  2
ACAD_ISO09W100
 70
     0
  3
ISO long-dash double-short-dash ____ __ __ ____
 72
    65
 73
     6
 40
45.0
 49
24.0
 74
     0
 49
-3.0
 74
     0
 49
6.0
 74
     0
 49
-3.0
 74
     0
 49
6.0
 74
     0
 49
-3.0
 74
     0
  0
LTYPE
  5
3AE
330
31D
100
AcDbSymbolTableRecord
100
AcDbLinetypeTableRecord
  2
ACAD_ISO10W100
 70
     0
  3
ISO dash dot __ . __ . __ . __ . __ . __ . __ . 
 72
    65
 73
     4
 40
18.0
 49
12.0
 74
     0
 49
-3.0
 74
     0
 49
0.0
 74
     0
 49
-3.0
 74
     0
  0
LTYPE
  5
3AF
330
31D
100
AcDbSymbolTableRecord
100
AcDbLinetypeTableRecord
  2
ACAD_ISO11W100
 70
     0
  3
ISO double-dash dot __ __ . __ __ . __ __ . __ _
 72
    65
 73
     6
 40
33.0
 49
12.0
 74
     0
 49
-3.0
 74
     0
 49
12.0
 74
     0
 49
-3.0
 74
     0
 49
0.0
 74
     0
 49
-3.0
 74
     0
  0
LTYPE
  5
3B0
330
31D
100
AcDbSymbolTableRecord
100
AcDbLinetypeTableRecord
  2
ACAD_ISO12W100
 70
     0
  3
ISO dash double-dot __ . . __ . . __ . . __ . . 
 72
    65
 73
     6
 40
21.0
 49
12.0
 74
     0
 49
-3.0
 74
     0
 49
0.0
 74
     0
 49
-3.0
 74
     0
 49
0.0
 74
     0
 49
-3.0
 74
     0
  0
LTYPE
  5
3B1
330
31D
100
AcDbSymbolTableRecord
100
AcDbLinetypeTableRecord
  2
ACAD_ISO15W100
 70
     0
  3
ISO double-dash triple-dot __ __ . . . __ __ . .
 72
    65
 73
    10
 40
39.0
 49
12.0
 74
     0
 49
-3.0
 74
     0
 49
12.0
 74
     0
 49
-3.0
 74
     0
 49
0.0
 74
     0
 49
-3.0
 74
     0
 49
0.0
 74
     0
 49
-3.0
 74
     0
 49
0.0
 74
     0
 49
-3.0
 74
     0
  0
LTYPE
  5
3B2
330
31D
100
AcDbSymbolTableRecord
100
AcDbLinetypeTableRecord
  2
JIS_02_0_7
 70
     0
  3
HIDDEN0.75 _ _ _ _ _ _ _ _ _ _ _ _ _ _ _ _ _ 
 72
    65
 73
     2
 40
1.35
 49
0.75
 74
     0
 49
-0.6
 74
     0
  0
LTYPE
  5
3B3
330
31D
100
AcDbSymbolTableRecord
100
AcDbLinetypeTableRecord
  2
JIS_02_1_0
 70
     0
  3
HIDDEN01 _ _ _ _ _ _ _ _ _ _ _ _ _ _ _ _ _ 
 72
    65
 73
     2
 40
2.0
 49
1.0
 74
     0
 49
-1.0
 74
     0
  0
LTYPE
  5
3B4
330
31D
100
AcDbSymbolTableRecord
100
AcDbLinetypeTableRecord
  2
JIS_02_1_2
 70
     0
  3
HIDDEN01.25  _ _ _ _ _ _ _ _ _ _ _ _ _ _ _ _ _ 
 72
    65
 73
     2
 40
2.5
 49
1.25
 74
     0
 49
-1.25
 74
     0
  0
LTYPE
  5
3B5
330
31D
100
AcDbSymbolTableRecord
100
AcDbLinetypeTableRecord
  2
JIS_02_2_0
 70
     0
  3
HIDDEN02 __ __ __ __ __ __ __ __ __ __ __ 
 72
    65
 73
     2
 40
3.0
 49
2.0
 74
     0
 49
-1.0
 74
     0
  0
LTYPE
  5
3B6
330
31D
100
AcDbSymbolTableRecord
100
AcDbLinetypeTableRecord
  2
JIS_02_4_0
 70
     0
  3
HIDDEN04 ____ ____ ____ ____ ____ ____ ____ 
 72
    65
 73
     2
 40
5.5
 49
4.0
 74
     0
 49
-1.5
 74
     0
  0
LTYPE
  5
3B7
330
31D
100
AcDbSymbolTableRecord
100
AcDbLinetypeTableRecord
  2
JIS_08_11
 70
     0
  3
1SASEN11 ___ _ ___ _ ___ _ ___ _ ___ _ ___
 72
    65
 73
     4
 40
12.8
 49
11.0
 74
     0
 49
-0.6
 74
     0
 49
0.6
 74
     0
 49
-0.6
 74
     0
  0
LTYPE
  5
3B8
330
31D
100
AcDbSymbolTableRecord
100
AcDbLinetypeTableRecord
  2
JIS_08_15
 70
     0
  3
1SASEN15 ____ _ ____ _ ____ _ ____ _ ____ 
 72
    65
 73
     4
 40
17.25
 49
15.0
 74
     0
 49
-0.75
 74
     0
 49
0.75
 74
     0
 49
-0.75
 74
     0
  0
LTYPE
  5
3B9
330
31D
100
AcDbSymbolTableRecord
100
AcDbLinetypeTableRecord
  2
JIS_08_25
 70
     0
  3
1SASEN25 ________  __  ________  __  _____
 72
    65
 73
     4
 40
28.0
 49
25.0
 74
     0
 49
-1.125
 74
     0
 49
0.75
 74
     0
 49
-1.125
 74
     0
  0
LTYPE
  5
3BA
330
31D
100
AcDbSymbolTableRecord
100
AcDbLinetypeTableRecord
  2
JIS_08_37
 70
     0
  3
1SASEN37 ________  __  ________  __  _____
 72
    65
 73
     4
 40
40.49999999999999
 49
37.5
 74
     0
 49
-1.125
 74
     0
 49
0.75
 74
     0
 49
-1.125
 74
     0
  0
LTYPE
  5
3BB
330
31D
100
AcDbSymbolTableRecord
100
AcDbLinetypeTableRecord
  2
JIS_08_50
 70
     0
  3
1SASEN50 _______________  __  ____________
 72
    65
 73
     4
 40
53.0
 49
50.0
 74
     0
 49
-1.125
 74
     0
 49
0.75
 74
     0
 49
-1.125
 74
     0
  0
LTYPE
  5
3BC
330
31D
100
AcDbSymbolTableRecord
100
AcDbLinetypeTableRecord
  2
JIS_09_08
 70
     0
  3
2SASEN8 __ _ _ __ _ _ __ _ _ __ _ _ __ _ _ 
 72
    65
 73
     6
 40
10.75
 49
8.0
 74
     0
 49
-0.55
 74
     0
 49
0.55
 74
     0
 49
-0.55
 74
     0
 49
0.55
 74
     0
 49
-0.55
 74
     0
  0
LTYPE
  5
3BD
330
31D
100
AcDbSymbolTableRecord
100
AcDbLinetypeTableRecord
  2
JIS_09_15
 70
     0
  3
2SASEN15 ___ _ _ ___ _ _ ___ _ _ ___ _ _ ___ 
 72
    65
 73
     6
 40
18.9
 49
15.0
 74
     0
 49
-0.9
 74
     0
 49
0.6
 74
     0
 49
-0.9
 74
     0
 49
0.6
 74
     0
 49
-0.9
 74
     0
  0
LTYPE
  5
3BE
330
31D
100
AcDbSymbolTableRecord
100
AcDbLinetypeTableRecord
  2
JIS_09_29
 70
     0
  3
2SASEN29 ______　__  __  ______　__  __  ___
 72
    65
 73
     6
 40
34.0
 49
29.0
 74
     0
 49
-1.199999999999999
 74
     0
 49
0.7
 74
     0
 49
-1.199999999999999
 74
     0
 49
0.7
 74
     0
 49
-1.199999999999999
 74
     0
  0
LTYPE
  5
3BF
330
31D
100
AcDbSymbolTableRecord
100
AcDbLinetypeTableRecord
  2
JIS_09_50
 70
     0
  3
2SASEN50 ____________　__  __  _____________
 72
    65
 73
     6
 40
55.0
 49
50.0
 74
     0
 49
-1.199999999999999
 74
     0
 49
0.7
 74
     0
 49
-1.199999999999999
 74
     0
 49
0.7
 74
     0
 49
-1.199999999999999
 74
     0
  0
LTYPE
  5
434
330
31D
100
AcDbSymbolTableRecord
100
AcDbLinetypeTableRecord
  2
AM_ISO02W050
 70
     0
  3
__ __ __ __ __ __ __ __ __ __ __ __ __ __ __
 72
    65
 73
     2
 40
7.5
 49
6.0
 74
     0
 49
-1.5
 74
     0
  0
LTYPE
  5
435
330
31D
100
AcDbSymbolTableRecord
100
AcDbLinetypeTableRecord
  2
AM_ISO08W050
 70
     0
  3
____ . ____ . ____ . ____ . ____ . ____ . ____
 72
    65
 73
     4
 40
18.0
 49
12.0
 74
     0
 49
-1.5
 74
     0
 49
3.0
 74
     0
 49
-1.5
 74
     0
  0
LTYPE
  5
436
330
31D
100
AcDbSymbolTableRecord
100
AcDbLinetypeTableRecord
  2
AM_ISO09W050
 70
     0
  3
_____ . . _____ . . _____ . . ____ .. ____
 72
    65
 73
     6
 40
22.5
 49
12.0
 74
     0
 49
-1.5
 74
     0
 49
3.0
 74
     0
 49
-1.5
 74
     0
 49
3.0
 74
     0
 49
-1.5
 74
     0
  0
LTYPE
  5
437
330
31D
100
AcDbSymbolTableRecord
100
AcDbLinetypeTableRecord
  2
Amconstr
 70
     0
  3
_______________________
 72
    65
 73
     2
 40
9999.0
 49
9999.0
 74
     0
 49
0.0
 74
     0
  0
LTYPE
  5
438
330
31D
100
AcDbSymbolTableRecord
100
AcDbLinetypeTableRecord
  2
AM_ISO08W050x2
 70
     0
  3
__ . __ . __ . __ . __ . __
 72
    65
 73
     4
 40
9.0
 49
6.0
 74
     0
 49
-0.75
 74
     0
 49
1.5
 74
     0
 49
-0.75
 74
     0
  0
LTYPE
  5
439
330
31D
100
AcDbSymbolTableRecord
100
AcDbLinetypeTableRecord
  2
AM_ISO02W050x2
 70
     0
  3
 _ _ _ _ _ _ _ _ _ _ _ _
 72
    65
 73
     2
 40
3.75
 49
3.0
 74
     0
 49
-0.75
 74
     0
  0
LTYPE
  5
43C
330
31D
100
AcDbSymbolTableRecord
100
AcDbLinetypeTableRecord
  2
Amzigzag
 70
     0
  3
/\/-/\/-/\/-/\/-/\/-/\/
 72
    65
 73
     2
 40
11.0001
 49
0.0001
 74
     4
 75
   136
340
43B
 46
0.04
 50
0.0
 44
0.0
 45
0.0
 49
-11.0
 74
     0
  0
LTYPE
  5
43D
330
31D
100
AcDbSymbolTableRecord
100
AcDbLinetypeTableRecord
  2
Amzigzag2
 70
     0
  3
/\/-/\/-/\/-/\/-/\/-/\/
 72
    65
 73
     2
 40
0.4401
 49
0.0001
 74
     4
 75
   136
340
43B
 46
0.0016
 50
0.0
 44
0.0
 45
0.0
 49
-0.4400000000000001
 74
     0
  0
LTYPE
  5
44D
330
31D
100
AcDbSymbolTableRecord
100
AcDbLinetypeTableRecord
  2
ACANSTGB
 70
     0
  3
__ . . __ . .
 72
    65
 73
     6
 40
0.35433070866
 49
0.15748031496
 74
     0
 49
-0.03937007874
 74
     0
 49
0.03937007874
 74
     0
 49
-0.03937007874
 74
     0
 49
0.03937007874
 74
     0
 49
-0.03937007874
 74
     0
  0
LTYPE
  5
44E
330
31D
100
AcDbSymbolTableRecord
100
AcDbLinetypeTableRecord
  2
ACANSTGL
 70
     0
  3
_ _ _ _ _
 72
    65
 73
     2
 40
0.11811023622
 49
0.07874015748
 74
     0
 49
-0.03937007874
 74
     0
  0
ENDTAB
  0
TABLE
  2
LAYER
  5
31A
330
0
100
AcDbSymbolTable
 70
     5
  0
LAYER
  5
36C
102
{ACAD_XDICTIONARY
360
46F
102
}
330
31A
100
AcDbSymbolTableRecord
100
AcDbLayerTableRecord
  2
0
 70
     0
 62
     7
  6
CONTINUOUS
370
    -3
390
327
  0
LAYER
  5
3C0
102
{ACAD_XDICTIONARY
360
471
102
}
330
31A
100
AcDbSymbolTableRecord
100
AcDbLayerTableRecord
  2
LAYER0003
 70
     0
 62
     7
  6
CONTINUOUS
370
    -3
390
327
  0
LAYER
  5
3C1
102
{ACAD_XDICTIONARY
360
473
102
}
330
31A
100
AcDbSymbolTableRecord
100
AcDbLayerTableRecord
  2
LAYER0005
 70
     0
 62
     7
  6
CONTINUOUS
370
    -3
390
327
  0
LAYER
  5
3C2
102
{ACAD_XDICTIONARY
360
475
102
}
330
31A
100
AcDbSymbolTableRecord
100
AcDbLayerTableRecord
  2
ZUWAKU
 70
     0
 62
     7
  6
CONTINUOUS
370
    -3
390
327
  0
LAYER
  5
3C3
102
{ACAD_XDICTIONARY
360
477
102
}
330
31A
100
AcDbSymbolTableRecord
100
AcDbLayerTableRecord
  2
LAYER0012
 70
     0
 62
     7
  6
CONTINUOUS
370
    -3
390
327
  0
ENDTAB
  0
TABLE
  2
STYLE
  5
31B
330
0
100
AcDbSymbolTable
 70
     6
  0
STYLE
  5
36D
330
31B
100
AcDbSymbolTableRecord
100
AcDbTextStyleTableRecord
  2
STANDARD
 70
     0
 40
0.0
 41
1.0
 50
0.0
 71
     0
 42
0.2
  3
txt.shx
  4
bigfont.shx
  0
STYLE
  5
371
330
31B
100
AcDbSymbolTableRecord
100
AcDbTextStyleTableRecord
  2
Annotative
 70
     0
 40
0.0
 41
1.0
 50
0.0
 71
     0
 42
0.2
  3
txt
  4

1001
AcadAnnotative
1000
AnnotativeData
1002
{
1070
     1
1070
     1
1002
}
  0
STYLE
  5
3C4
330
31B
100
AcDbSymbolTableRecord
100
AcDbTextStyleTableRecord
  2
DCSTYLE0
 70
     0
 40
0.0
 41
0.5
 50
0.0
 71
     0
 42
0.2
  3
txt.shx
  4
bigfont
  0
STYLE
  5
43B
330
31B
100
AcDbSymbolTableRecord
100
AcDbTextStyleTableRecord
  2

 70
     1
 40
0.0
 41
1.0
 50
0.0
 71
     0
 42
0.2
  3
genltshp.shx
  4

  0
STYLE
  5
44B
330
31B
100
AcDbSymbolTableRecord
100
AcDbTextStyleTableRecord
  2
ACANSTS
 70
     0
 40
0.0
 41
1.0
 50
0.0
 71
     0
 42
0.2
  3
romans.shx
  4
extfont.shx
  0
STYLE
  5
44C
330
31B
100
AcDbSymbolTableRecord
100
AcDbTextStyleTableRecord
  2
ACANSGDT
 70
     0
 40
0.0
 41
1.0
 50
0.0
 71
     0
 42
0.2
  3
amgdt.shx
  4

  0
ENDTAB
  0
TABLE
  2
VIEW
  5
31E
330
0
100
AcDbSymbolTable
 70
     0
  0
ENDTAB
  0
TABLE
  2
UCS
  5
31F
330
0
100
AcDbSymbolTable
 70
     0
  0
ENDTAB
  0
TABLE
  2
APPID
  5
321
330
0
100
AcDbSymbolTable
 70
    18
  0
APPID
  5
36E
330
321
100
AcDbSymbolTableRecord
100
AcDbRegAppTableRecord
  2
ACAD
 70
     0
  0
APPID
  5
375
330
321
100
AcDbSymbolTableRecord
100
AcDbRegAppTableRecord
  2
AcadAnnotative
 70
     0
  0
APPID
  5
3C5
330
321
100
AcDbSymbolTableRecord
100
AcDbRegAppTableRecord
  2
DAFUSIONOUT
 70
     0
  0
APPID
  5
3F4
330
321
100
AcDbSymbolTableRecord
100
AcDbRegAppTableRecord
  2
MCAD_NO_VIS
 70
     0
  0
APPID
  5
3F5
330
321
100
AcDbSymbolTableRecord
100
AcDbRegAppTableRecord
  2
ACAD_TEMP_GRAPHIC
 70
     0
  0
APPID
  5
3FF
330
321
100
AcDbSymbolTableRecord
100
AcDbRegAppTableRecord
  2
ACATTRIBSERVICES
 70
     0
  0
APPID
  5
417
330
321
100
AcDbSymbolTableRecord
100
AcDbRegAppTableRecord
  2
DESIGNERASSEMBLIES
 70
     0
  0
APPID
  5
431
330
321
100
AcDbSymbolTableRecord
100
AcDbRegAppTableRecord
  2
ACAD_DSTYLE_DIMJAG
 70
     0
  0
APPID
  5
432
330
321
100
AcDbSymbolTableRecord
100
AcDbRegAppTableRecord
  2
ACAD_DSTYLE_DIMBREAK
 70
     0
  0
APPID
  5
46A
330
321
100
AcDbSymbolTableRecord
100
AcDbRegAppTableRecord
  2
GENIUS_GENSCREG_15
 70
     0
  0
APPID
  5
46B
330
321
100
AcDbSymbolTableRecord
100
AcDbRegAppTableRecord
  2
GENIUS_GENOBJ-N-SDF_13
 70
     0
  0
APPID
  5
46C
330
321
100
AcDbSymbolTableRecord
100
AcDbRegAppTableRecord
  2
GENIUS_GENODEF_13
 70
     0
  0
APPID
  5
46D
330
321
100
AcDbSymbolTableRecord
100
AcDbRegAppTableRecord
  2
ACAD_NAV_VCDISPLAY
 70
     0
  0
APPID
  5
4BD
330
321
100
AcDbSymbolTableRecord
100
AcDbRegAppTableRecord
  2
ACAD_MLEADERVER
 70
     0
  0
APPID
  5
4C6
330
321
100
AcDbSymbolTableRecord
100
AcDbRegAppTableRecord
  2
ACAD_DSTYLE_DIMARC_LENGTH_SYMBOL
 70
     0
  0
APPID
  5
4C7
330
321
100
AcDbSymbolTableRecord
100
AcDbRegAppTableRecord
  2
ACAD_DSTYLE_DIM_LINETYPE
 70
     0
  0
APPID
  5
4C8
330
321
100
AcDbSymbolTableRecord
100
AcDbRegAppTableRecord
  2
ACAD_DSTYLE_DIM_EXT1_LINETYPE
 70
     0
  0
APPID
  5
4C9
330
321
100
AcDbSymbolTableRecord
100
AcDbRegAppTableRecord
  2
ACAD_DSTYLE_DIM_EXT2_LINETYPE
 70
     0
  0
ENDTAB
  0
TABLE
  2
DIMSTYLE
  5
322
330
0
100
AcDbSymbolTable
 70
     9
100
AcDbDimStyleTable
 71
     0
  0
DIMSTYLE
105
36F
330
322
100
AcDbSymbolTableRecord
100
AcDbDimStyleTableRecord
  2
STANDARD
 70
     0
279
     2
284
     8
285
     8
286
     8
340
36D
  0
DIMSTYLE
105
370
330
322
100
AcDbSymbolTableRecord
100
AcDbDimStyleTableRecord
  2
Annotative
 70
     0
340
36D
1001
AcadAnnotative
1000
AnnotativeData
1002
{
1070
     1
1070
     1
1002
}
  0
DIMSTYLE
105
3C6
102
{ACAD_REACTORS
330
2CB
330
2CD
330
2CF
330
2D0
330
2D1
102
}
330
322
100
AcDbSymbolTableRecord
100
AcDbDimStyleTableRecord
  2
DC_ROTATED
 70
     0
 41
2.000107526779175
 42
0.0
 44
1.0
 73
     0
 74
     0
 77
     3
 78
     8
140
3.5
147
0.7999999999999972
172
     1
173
     1
176
     4
177
     4
178
     7
279
     2
284
     8
285
     8
286
     8
340
36D
  0
DIMSTYLE
105
430
102
{ACAD_REACTORS
330
420
102
}
330
322
100
AcDbSymbolTableRecord
100
AcDbDimStyleTableRecord
  2
AM_ANSI
 70
     0
  4
mm
 41
0.12
 42
0.05
 43
0.5
 44
0.1
 47
0.1
 48
0.1
 78
     7
 79
     2
140
0.12
141
0.0
146
0.71
147
0.06
176
   256
177
   256
178
     2
274
     4
284
     7
340
36D
371
    -1
372
    -1
1001
ACAD_DSTYLE_DIMJAG
1070
   388
1040
1.5
1001
ACAD_DSTYLE_DIMBREAK
1070
   391
1040
0.125
1001
ACAD_DSTYLE_DIMARC_LENGTH_SYMBOL
1070
   379
1070
     1
1001
ACAD_DSTYLE_DIM_LINETYPE
1070
   380
1005
372
1001
ACAD_DSTYLE_DIM_EXT1_LINETYPE
1070
   381
1005
372
1001
ACAD_DSTYLE_DIM_EXT2_LINETYPE
1070
   382
1005
372
  0
DIMSTYLE
105
43E
330
322
100
AcDbSymbolTableRecord
100
AcDbDimStyleTableRecord
  2
AM_ANSI$3
 70
     0
  4
mm
 41
0.12
 42
0.05
 43
0.5
 44
0.1
 47
0.1
 48
0.1
 78
     7
 79
     2
140
0.12
141
0.0
146
0.71
147
0.06
176
   256
177
   256
178
     2
274
     4
284
     7
288
     1
289
     0
340
36D
371
    -1
372
    -1
1001
ACAD_DSTYLE_DIMBREAK
1070
   391
1040
0.125
1001
ACAD_DSTYLE_DIMJAG
1070
   388
1040
1.5
1001
ACAD_DSTYLE_DIMARC_LENGTH_SYMBOL
1070
   379
1070
     1
1001
ACAD_DSTYLE_DIM_LINETYPE
1070
   380
1005
372
1001
ACAD_DSTYLE_DIM_EXT1_LINETYPE
1070
   381
1005
372
1001
ACAD_DSTYLE_DIM_EXT2_LINETYPE
1070
   382
1005
372
  0
DIMSTYLE
105
43F
330
322
100
AcDbSymbolTableRecord
100
AcDbDimStyleTableRecord
  2
AM_ANSI$4
 70
     0
  4
mm
 41
0.12
 42
0.05
 43
0.5
 44
0.1
 47
0.1
 48
0.1
 78
     7
 79
     2
140
0.12
141
0.0
146
0.71
147
0.06
176
   256
177
   256
178
     2
274
     4
284
     7
288
     1
289
     0
340
36D
371
    -1
372
    -1
1001
ACAD_DSTYLE_DIMBREAK
1070
   391
1040
0.125
1001
ACAD_DSTYLE_DIMJAG
1070
   388
1040
1.5
1001
ACAD_DSTYLE_DIMARC_LENGTH_SYMBOL
1070
   379
1070
     1
1001
ACAD_DSTYLE_DIM_LINETYPE
1070
   380
1005
372
1001
ACAD_DSTYLE_DIM_EXT1_LINETYPE
1070
   381
1005
372
1001
ACAD_DSTYLE_DIM_EXT2_LINETYPE
1070
   382
1005
372
  0
DIMSTYLE
105
440
330
322
100
AcDbSymbolTableRecord
100
AcDbDimStyleTableRecord
  2
AM_ANSI$7
 70
     0
  4
mm
 41
0.12
 42
0.05
 43
0.5
 44
0.1
 47
0.1
 48
0.1
 78
     7
 79
     2
140
0.12
141
0.0
146
0.71
147
0.06
176
   256
177
   256
178
     2
274
     4
284
     7
340
36D
371
    -1
372
    -1
1001
ACAD_DSTYLE_DIMBREAK
1070
   391
1040
0.125
1001
ACAD_DSTYLE_DIMJAG
1070
   388
1040
1.5
1001
ACAD_DSTYLE_DIMARC_LENGTH_SYMBOL
1070
   379
1070
     1
1001
ACAD_DSTYLE_DIM_LINETYPE
1070
   380
1005
372
1001
ACAD_DSTYLE_DIM_EXT1_LINETYPE
1070
   381
1005
372
1001
ACAD_DSTYLE_DIM_EXT2_LINETYPE
1070
   382
1005
372
  0
DIMSTYLE
105
441
330
322
100
AcDbSymbolTableRecord
100
AcDbDimStyleTableRecord
  2
AM_ANSI$SF
 70
     0
  4
mm
 41
0.12
 42
0.05
 43
0.5
 44
0.1
 47
0.1
 48
0.1
 75
     1
 76
     1
 78
     7
 79
     2
140
0.12
141
0.0
146
0.71
147
0.06
176
   256
177
   256
178
     2
274
     4
284
     7
340
36D
371
    -1
372
    -1
1001
ACAD_DSTYLE_DIMBREAK
1070
   391
1040
0.125
1001
ACAD_DSTYLE_DIMJAG
1070
   388
1040
1.5
1001
ACAD_DSTYLE_DIMARC_LENGTH_SYMBOL
1070
   379
1070
     1
1001
ACAD_DSTYLE_DIM_LINETYPE
1070
   380
1005
372
1001
ACAD_DSTYLE_DIM_EXT1_LINETYPE
1070
   381
1005
372
1001
ACAD_DSTYLE_DIM_EXT2_LINETYPE
1070
   382
1005
372
  0
DIMSTYLE
105
446
330
322
100
AcDbSymbolTableRecord
100
AcDbDimStyleTableRecord
  2
AM_ANSI$SH
 70
     0
  4
mm
 41
0.12
 42
0.05
 43
0.5
 44
0.1
 47
0.1
 48
0.1
 75
     1
 76
     1
 78
     7
 79
     2
140
0.12
141
0.0
146
0.71
147
0.06
173
     1
176
   256
177
   256
178
     2
274
     4
284
     7
340
36D
343
442
371
    -1
372
    -1
1001
ACAD_DSTYLE_DIMBREAK
1070
   391
1040
0.125
1001
ACAD_DSTYLE_DIMJAG
1070
   388
1040
1.5
1001
ACAD_DSTYLE_DIMARC_LENGTH_SYMBOL
1070
   379
1070
     1
1001
ACAD_DSTYLE_DIM_LINETYPE
1070
   380
1005
372
1001
ACAD_DSTYLE_DIM_EXT1_LINETYPE
1070
   381
1005
372
1001
ACAD_DSTYLE_DIM_EXT2_LINETYPE
1070
   382
1005
372
  0
ENDTAB
  0
TABLE
  2
BLOCK_RECORD
  5
319
330
0
100
AcDbSymbolTable
 70
    20
  0
BLOCK_RECORD
  5
387
330
319
100
AcDbSymbolTableRecord
100
AcDbBlockTableRecord
  2
*Model_Space
340
38A
  0
BLOCK_RECORD
  5
383
330
319
100
AcDbSymbolTableRecord
100
AcDbBlockTableRecord
  2
*Paper_Space
340
386
  0
BLOCK_RECORD
  5
3C9
330
319
100
AcDbSymbolTableRecord
100
AcDbBlockTableRecord
  2
$MODEL_SPACE
340
0
  0
BLOCK_RECORD
  5
3CB
330
319
100
AcDbSymbolTableRecord
100
AcDbBlockTableRecord
  2
$PAPER_SPACE
340
0
  0
BLOCK_RECORD
  5
3CD
330
319
100
AcDbSymbolTableRecord
100
AcDbBlockTableRecord
  2
DC_GROUP_1
340
0
102
{BLKREFS
331
2C4
102
}
  0
BLOCK_RECORD
  5
3CF
330
319
100
AcDbSymbolTableRecord
100
AcDbBlockTableRecord
  2
DC_GROUP_2
340
0
102
{BLKREFS
331
2C5
102
}
  0
BLOCK_RECORD
  5
3D1
330
319
100
AcDbSymbolTableRecord
100
AcDbBlockTableRecord
  2
DC_GROUP_3
340
0
102
{BLKREFS
331
2C6
102
}
  0
BLOCK_RECORD
  5
3D3
330
319
100
AcDbSymbolTableRecord
100
AcDbBlockTableRecord
  2
DC_GROUP_4
340
0
102
{BLKREFS
331
2C7
102
}
  0
BLOCK_RECORD
  5
3D5
330
319
100
AcDbSymbolTableRecord
100
AcDbBlockTableRecord
  2
DC_GROUP_5
340
0
102
{BLKREFS
331
2C8
102
}
  0
BLOCK_RECORD
  5
3D7
330
319
100
AcDbSymbolTableRecord
100
AcDbBlockTableRecord
  2
DC_GROUP_6
340
0
102
{BLKREFS
331
2C9
102
}
  0
BLOCK_RECORD
  5
3D9
330
319
100
AcDbSymbolTableRecord
100
AcDbBlockTableRecord
  2
DC_GROUP_7
340
0
102
{BLKREFS
331
124
102
}
  0
BLOCK_RECORD
  5
3DB
330
319
100
AcDbSymbolTableRecord
100
AcDbBlockTableRecord
  2
DC_GROUP_8
340
0
102
{BLKREFS
331
2CA
102
}
  0
BLOCK_RECORD
  5
3DD
330
319
100
AcDbSymbolTableRecord
100
AcDbBlockTableRecord
  2
*D10
340
0
  0
BLOCK_RECORD
  5
3DF
330
319
100
AcDbSymbolTableRecord
100
AcDbBlockTableRecord
  2
_OPEN30
340
0
102
{BLKREFS
331
145
331
146
331
148
331
149
331
14B
331
14C
331
14E
331
14F
331
151
331
152
331
159
331
15A
331
15F
331
160
331
167
331
168
331
134
331
135
331
13B
331
13C
102
}
  0
BLOCK_RECORD
  5
3E0
330
319
100
AcDbSymbolTableRecord
100
AcDbBlockTableRecord
  2
*D12
340
0
  0
BLOCK_RECORD
  5
3E2
330
319
100
AcDbSymbolTableRecord
100
AcDbBlockTableRecord
  2
DA_IMAGEDIMGROUP_1
340
0
102
{BLKREFS
331
2CE
102
}
  0
BLOCK_RECORD
  5
3E4
330
319
100
AcDbSymbolTableRecord
100
AcDbBlockTableRecord
  2
*D14
340
0
  0
BLOCK_RECORD
  5
3E6
330
319
100
AcDbSymbolTableRecord
100
AcDbBlockTableRecord
  2
*D15
340
0
  0
BLOCK_RECORD
  5
3E8
330
319
100
AcDbSymbolTableRecord
100
AcDbBlockTableRecord
  2
*D16
340
0
  0
BLOCK_RECORD
  5
442
330
319
100
AcDbSymbolTableRecord
100
AcDbBlockTableRecord
  2
GENAXEH
340
0
  0
BLOCK_RECORD
  5
450
330
319
100
AcDbSymbolTableRecord
100
AcDbBlockTableRecord
  2
_ACMFILLEDHALF
340
0
  0
ENDTAB
  0
ENDSEC
  0
SECTION
  2
BLOCKS
  0
BLOCK
  5
388
330
387
100
AcDbEntity
  8
0
100
AcDbBlockBegin
  2
*Model_Space
 70
     0
 10
0.0
 20
0.0
 30
0.0
  3
*Model_Space
  1

  0
ENDBLK
  5
389
330
387
100
AcDbEntity
  8
0
100
AcDbBlockEnd
  0
BLOCK
  5
384
330
383
100
AcDbEntity
 67
     1
  8
0
100
AcDbBlockBegin
  2
*Paper_Space
 70
     0
 10
0.0
 20
0.0
 30
0.0
  3
*Paper_Space
  1

  0
ENDBLK
  5
385
330
383
100
AcDbEntity
 67
     1
  8
0
100
AcDbBlockEnd
  0
BLOCK
  5
3CA
330
3C9
100
AcDbEntity
  8
0
100
AcDbBlockBegin
  2
$MODEL_SPACE
 70
     0
 10
0.0
 20
0.0
 30
0.0
  3
$MODEL_SPACE
  1

  0
ENDBLK
  5
21
330
3C9
100
AcDbEntity
  8
0
100
AcDbBlockEnd
  0
BLOCK
  5
3CC
330
3CB
100
AcDbEntity
  8
0
100
AcDbBlockBegin
  2
$PAPER_SPACE
 70
     0
 10
0.0
 20
0.0
 30
0.0
  3
$PAPER_SPACE
  1

  0
ENDBLK
  5
1D
330
3CB
100
AcDbEntity
  8
0
100
AcDbBlockEnd
  0
BLOCK
  5
3CE
330
3CD
100
AcDbEntity
  8
0
100
AcDbBlockBegin
  2
DC_GROUP_1
 70
     0
 10
0.0
 20
0.0
 30
0.0
  3
DC_GROUP_1
  1

  0
LINE
  5
A6
330
3CD
100
AcDbEntity
  8
0
  6
Continuous
 62
     7
100
AcDbLine
 10
-24.89003557953447
 20
-43.26474379305818
 30
0.0
 11
-24.97043454390996
 21
-43.11739963822673
 31
0.0
  0
LINE
  5
A7
330
3CD
100
AcDbEntity
  8
0
  6
Continuous
 62
     7
100
AcDbLine
 10
-23.20266759094329
 20
-43.11739963822673
 30
0.0
 11
-23.28306655531878
 21
-43.26474379305818
 31
0.0
  0
LINE
  5
A8
330
3CD
100
AcDbEntity
  8
0
  6
Continuous
 62
     7
100
AcDbLine
 10
-24.8035216128651
 20
-43.39751279598295
 30
0.0
 11
-24.89003557953447
 21
-43.26474379305818
 31
0.0
  0
LINE
  5
A9
330
3CD
100
AcDbEntity
  8
0
  6
Continuous
 62
     7
100
AcDbLine
 10
-24.71155106742617
 20
-43.51469619472028
 30
0.0
 11
-24.8035216128651
 21
-43.39751279598295
 31
0.0
  0
LINE
  5
AA
330
3CD
100
AcDbEntity
  8
0
  6
Continuous
 62
     7
100
AcDbLine
 10
-24.61482389460207
 20
-43.61540215285185
 30
0.0
 11
-24.71155106742617
 21
-43.51469619472028
 31
0.0
  0
LINE
  5
AB
330
3CD
100
AcDbEntity
  8
0
  6
Continuous
 62
     7
100
AcDbLine
 10
-24.51407624658395
 20
-43.69886423722436
 30
0.0
 11
-24.61482389460207
 21
-43.61540215285185
 31
0.0
  0
LINE
  5
AC
330
3CD
100
AcDbEntity
  8
0
  6
Continuous
 62
     7
100
AcDbLine
 10
-24.41007487380512
 20
-43.76444725098281
 30
0.0
 11
-24.51407624658395
 21
-43.69886423722436
 31
0.0
  0
LINE
  5
AD
330
3CD
100
AcDbEntity
  8
0
  6
Continuous
 62
     7
100
AcDbLine
 10
-24.30361128951017
 20
-43.81165206779132
 30
0.0
 11
-24.41007487380512
 21
-43.76444725098281
 31
0.0
  0
LINE
  5
AE
330
3CD
100
AcDbEntity
  8
0
  6
Continuous
 62
     7
100
AcDbLine
 10
-24.19549574586154
 20
-43.84011943048881
 30
0.0
 11
-24.30361128951017
 21
-43.81165206779132
 31
0.0
  0
LINE
  5
AF
330
3CD
100
AcDbEntity
  8
0
  6
Continuous
 62
     7
100
AcDbLine
 10
-24.08655106742617
 20
-43.84963268525917
 30
0.0
 11
-24.19549574586154
 21
-43.84011943048881
 31
0.0
  0
LINE
  5
B0
330
3CD
100
AcDbEntity
  8
0
  6
Continuous
 62
     7
100
AcDbLine
 10
-23.97760638899172
 20
-43.84011943048881
 30
0.0
 11
-24.08655106742617
 21
-43.84963268525917
 31
0.0
  0
LINE
  5
B1
330
3CD
100
AcDbEntity
  8
0
  6
Continuous
 62
     7
100
AcDbLine
 10
-23.86949084534308
 20
-43.81165206779132
 30
0.0
 11
-23.97760638899172
 21
-43.84011943048881
 31
0.0
  0
LINE
  5
B2
330
3CD
100
AcDbEntity
  8
0
  6
Continuous
 62
     7
100
AcDbLine
 10
-23.76302726104814
 20
-43.76444725098281
 30
0.0
 11
-23.86949084534308
 21
-43.81165206779132
 31
0.0
  0
LINE
  5
B3
330
3CD
100
AcDbEntity
  8
0
  6
Continuous
 62
     7
100
AcDbLine
 10
-23.6590258882693
 20
-43.69886423722436
 30
0.0
 11
-23.76302726104814
 21
-43.76444725098281
 31
0.0
  0
LINE
  5
B4
330
3CD
100
AcDbEntity
  8
0
  6
Continuous
 62
     7
100
AcDbLine
 10
-23.55827824025027
 20
-43.61540215285185
 30
0.0
 11
-23.6590258882693
 21
-43.69886423722436
 31
0.0
  0
LINE
  5
B5
330
3CD
100
AcDbEntity
  8
0
  6
Continuous
 62
     7
100
AcDbLine
 10
-23.46155106742617
 20
-43.51469619472028
 30
0.0
 11
-23.55827824025027
 21
-43.61540215285185
 31
0.0
  0
LINE
  5
B6
330
3CD
100
AcDbEntity
  8
0
  6
Continuous
 62
     7
100
AcDbLine
 10
-23.36958052198815
 20
-43.39751279598295
 30
0.0
 11
-23.46155106742617
 21
-43.51469619472028
 31
0.0
  0
LINE
  5
B7
330
3CD
100
AcDbEntity
  8
0
  6
Continuous
 62
     7
100
AcDbLine
 10
-23.28306655531878
 20
-43.26474379305818
 30
0.0
 11
-23.36958052198815
 21
-43.39751279598295
 31
0.0
  0
LINE
  5
B8
330
3CD
100
AcDbEntity
  8
0
  6
Continuous
 62
     7
100
AcDbLine
 10
-25.33179444004099
 20
-41.56752204212988
 30
0.0
 11
-25.33655106742617
 21
-41.34963268525917
 31
0.0
  0
LINE
  5
B9
330
3CD
100
AcDbEntity
  8
0
  6
Continuous
 62
     7
100
AcDbLine
 10
-25.31756075869225
 20
-41.78375312942717
 30
0.0
 11
-25.33179444004099
 21
-41.56752204212988
 31
0.0
  0
LINE
  5
BA
330
3CD
100
AcDbEntity
  8
0
  6
Continuous
 62
     7
100
AcDbLine
 10
-25.29395835028799
 20
-41.99668029801705
 30
0.0
 11
-25.31756075869225
 21
-41.78375312942717
 31
0.0
  0
LINE
  5
BB
330
3CD
100
AcDbEntity
  8
0
  6
Continuous
 62
     7
100
AcDbLine
 10
-25.26116684340877
 20
-42.20468304357472
 30
0.0
 11
-25.29395835028799
 21
-41.99668029801705
 31
0.0
  0
LINE
  5
BC
330
3CD
100
AcDbEntity
  8
0
  6
Continuous
 62
     7
100
AcDbLine
 10
-25.21943580122252
 20
-42.40617833961096
 30
0.0
 11
-25.26116684340877
 21
-42.20468304357472
 31
0.0
  0
LINE
  5
BD
330
3CD
100
AcDbEntity
  8
0
  6
Continuous
 62
     7
100
AcDbLine
 10
-25.16908282215763
 20
-42.59963268525917
 30
0.0
 11
-25.21943580122252
 21
-42.40617833961096
 31
0.0
  0
LINE
  5
BE
330
3CD
100
AcDbEntity
  8
0
  6
Continuous
 62
     7
100
AcDbLine
 10
-25.11049112278806
 20
-42.78357377613702
 30
0.0
 11
-25.16908282215763
 21
-42.59963268525917
 31
0.0
  0
LINE
  5
BF
330
3CD
100
AcDbEntity
  8
0
  6
Continuous
 62
     7
100
AcDbLine
 10
-25.04410662132568
 20
-42.95660170947575
 30
0.0
 11
-25.11049112278806
 21
-42.78357377613702
 31
0.0
  0
LINE
  5
C0
330
3CD
100
AcDbEntity
  8
0
  6
Continuous
 62
     7
100
AcDbLine
 10
-24.97043454390996
 20
-43.11739963822673
 30
0.0
 11
-25.04410662132568
 21
-42.95660170947575
 31
0.0
  0
LINE
  5
C1
330
3CD
100
AcDbEntity
  8
0
  6
Continuous
 62
     7
100
AcDbLine
 10
-23.12899551352757
 20
-42.95660170947575
 30
0.0
 11
-23.20266759094329
 21
-43.11739963822673
 31
0.0
  0
LINE
  5
C2
330
3CD
100
AcDbEntity
  8
0
  6
Continuous
 62
     7
100
AcDbLine
 10
-23.06261101206519
 20
-42.78357377613702
 30
0.0
 11
-23.12899551352757
 21
-42.95660170947575
 31
0.0
  0
LINE
  5
C3
330
3CD
100
AcDbEntity
  8
0
  6
Continuous
 62
     7
100
AcDbLine
 10
-23.00401931269654
 20
-42.59963268525917
 30
0.0
 11
-23.06261101206519
 21
-42.78357377613702
 31
0.0
  0
LINE
  5
C4
330
3CD
100
AcDbEntity
  8
0
  6
Continuous
 62
     7
100
AcDbLine
 10
-22.95366633363074
 20
-42.40617833961096
 30
0.0
 11
-23.00401931269654
 21
-42.59963268525917
 31
0.0
  0
LINE
  5
C5
330
3CD
100
AcDbEntity
  8
0
  6
Continuous
 62
     7
100
AcDbLine
 10
-22.91193529144448
 20
-42.20468304357472
 30
0.0
 11
-22.95366633363074
 21
-42.40617833961096
 31
0.0
  0
LINE
  5
C6
330
3CD
100
AcDbEntity
  8
0
  6
Continuous
 62
     7
100
AcDbLine
 10
-22.87914378456526
 20
-41.99668029801705
 30
0.0
 11
-22.91193529144448
 21
-42.20468304357472
 31
0.0
  0
LINE
  5
C7
330
3CD
100
AcDbEntity
  8
0
  6
Continuous
 62
     7
100
AcDbLine
 10
-22.855541376161
 20
-41.78375312942717
 30
0.0
 11
-22.87914378456526
 21
-41.99668029801705
 31
0.0
  0
LINE
  5
C8
330
3CD
100
AcDbEntity
  8
0
  6
Continuous
 62
     7
100
AcDbLine
 10
-22.84130769481226
 20
-41.56752204212988
 30
0.0
 11
-22.855541376161
 21
-41.78375312942717
 31
0.0
  0
LINE
  5
C9
330
3CD
100
AcDbEntity
  8
0
  6
Continuous
 62
     7
100
AcDbLine
 10
-22.83655106742617
 20
-41.34963268525917
 30
0.0
 11
-22.84130769481226
 21
-41.56752204212988
 31
0.0
  0
LINE
  5
CA
330
3CD
100
AcDbEntity
  8
0
  6
Continuous
 62
     7
100
AcDbLine
 10
-22.84130769481226
 20
-41.13174332839025
 30
0.0
 11
-22.83655106742617
 21
-41.34963268525917
 31
0.0
  0
LINE
  5
CB
330
3CD
100
AcDbEntity
  8
0
  6
Continuous
 62
     7
100
AcDbLine
 10
-22.855541376161
 20
-40.91551224109298
 30
0.0
 11
-22.84130769481226
 21
-41.13174332839025
 31
0.0
  0
LINE
  5
CC
330
3CD
100
AcDbEntity
  8
0
  6
Continuous
 62
     7
100
AcDbLine
 10
-22.87914378456526
 20
-40.7025850725031
 30
0.0
 11
-22.855541376161
 21
-40.91551224109298
 31
0.0
  0
LINE
  5
CD
330
3CD
100
AcDbEntity
  8
0
  6
Continuous
 62
     7
100
AcDbLine
 10
-22.91193529144448
 20
-40.49458232694543
 30
0.0
 11
-22.87914378456526
 21
-40.7025850725031
 31
0.0
  0
LINE
  5
CE
330
3CD
100
AcDbEntity
  8
0
  6
Continuous
 62
     7
100
AcDbLine
 10
-22.95366633363074
 20
-40.29308703090918
 30
0.0
 11
-22.91193529144448
 21
-40.49458232694543
 31
0.0
  0
LINE
  5
CF
330
3CD
100
AcDbEntity
  8
0
  6
Continuous
 62
     7
100
AcDbLine
 10
-23.00401931269654
 20
-40.09963268525917
 30
0.0
 11
-22.95366633363074
 21
-40.29308703090918
 31
0.0
  0
LINE
  5
D0
330
3CD
100
AcDbEntity
  8
0
  6
Continuous
 62
     7
100
AcDbLine
 10
-23.06261101206519
 20
-39.91569159438313
 30
0.0
 11
-23.00401931269654
 21
-40.09963268525917
 31
0.0
  0
LINE
  5
D1
330
3CD
100
AcDbEntity
  8
0
  6
Continuous
 62
     7
100
AcDbLine
 10
-23.12899551352757
 20
-39.74266366104439
 30
0.0
 11
-23.06261101206519
 21
-39.91569159438313
 31
0.0
  0
LINE
  5
D2
330
3CD
100
AcDbEntity
  8
0
  6
Continuous
 62
     7
100
AcDbLine
 10
-23.20266759094329
 20
-39.58186573229341
 30
0.0
 11
-23.12899551352757
 21
-39.74266366104439
 31
0.0
  0
LINE
  5
D3
330
3CD
100
AcDbEntity
  8
0
  6
Continuous
 62
     7
100
AcDbLine
 10
-23.28306655531878
 20
-39.43452157746197
 30
0.0
 11
-23.20266759094329
 21
-39.58186573229341
 31
0.0
  0
LINE
  5
D4
330
3CD
100
AcDbEntity
  8
0
  6
Continuous
 62
     7
100
AcDbLine
 10
-23.36958052198815
 20
-39.30175257453721
 30
0.0
 11
-23.28306655531878
 21
-39.43452157746197
 31
0.0
  0
LINE
  5
D5
330
3CD
100
AcDbEntity
  8
0
  6
Continuous
 62
     7
100
AcDbLine
 10
-23.46155106742617
 20
-39.18456917579806
 30
0.0
 11
-23.36958052198815
 21
-39.30175257453721
 31
0.0
  0
LINE
  5
D6
330
3CD
100
AcDbEntity
  8
0
  6
Continuous
 62
     7
100
AcDbLine
 10
-23.55827824025027
 20
-39.08386321766829
 30
0.0
 11
-23.46155106742617
 21
-39.18456917579806
 31
0.0
  0
LINE
  5
D7
330
3CD
100
AcDbEntity
  8
0
  6
Continuous
 62
     7
100
AcDbLine
 10
-23.6590258882693
 20
-39.00040113329578
 30
0.0
 11
-23.55827824025027
 21
-39.08386321766829
 31
0.0
  0
LINE
  5
D8
330
3CD
100
AcDbEntity
  8
0
  6
Continuous
 62
     7
100
AcDbLine
 10
-23.76302726104814
 20
-38.93481811953735
 30
0.0
 11
-23.6590258882693
 21
-39.00040113329578
 31
0.0
  0
LINE
  5
D9
330
3CD
100
AcDbEntity
  8
0
  6
Continuous
 62
     7
100
AcDbLine
 10
-23.86949084534308
 20
-38.88761330272883
 30
0.0
 11
-23.76302726104814
 21
-38.93481811953735
 31
0.0
  0
LINE
  5
DA
330
3CD
100
AcDbEntity
  8
0
  6
Continuous
 62
     7
100
AcDbLine
 10
-23.97760638899172
 20
-38.85914594003134
 30
0.0
 11
-23.86949084534308
 21
-38.88761330272883
 31
0.0
  0
LINE
  5
DB
330
3CD
100
AcDbEntity
  8
0
  6
Continuous
 62
     7
100
AcDbLine
 10
-24.08655106742617
 20
-38.84963268525917
 30
0.0
 11
-23.97760638899172
 21
-38.85914594003134
 31
0.0
  0
LINE
  5
DC
330
3CD
100
AcDbEntity
  8
0
  6
Continuous
 62
     7
100
AcDbLine
 10
-24.19549574586154
 20
-38.85914594003134
 30
0.0
 11
-24.08655106742617
 21
-38.84963268525917
 31
0.0
  0
LINE
  5
DD
330
3CD
100
AcDbEntity
  8
0
  6
Continuous
 62
     7
100
AcDbLine
 10
-24.30361128951017
 20
-38.88761330272883
 30
0.0
 11
-24.19549574586154
 21
-38.85914594003134
 31
0.0
  0
LINE
  5
DE
330
3CD
100
AcDbEntity
  8
0
  6
Continuous
 62
     7
100
AcDbLine
 10
-24.41007487380512
 20
-38.93481811953735
 30
0.0
 11
-24.30361128951017
 21
-38.88761330272883
 31
0.0
  0
LINE
  5
DF
330
3CD
100
AcDbEntity
  8
0
  6
Continuous
 62
     7
100
AcDbLine
 10
-24.51407624658395
 20
-39.00040113329578
 30
0.0
 11
-24.41007487380512
 21
-38.93481811953735
 31
0.0
  0
LINE
  5
E0
330
3CD
100
AcDbEntity
  8
0
  6
Continuous
 62
     7
100
AcDbLine
 10
-24.61482389460207
 20
-39.08386321766829
 30
0.0
 11
-24.51407624658395
 21
-39.00040113329578
 31
0.0
  0
LINE
  5
E1
330
3CD
100
AcDbEntity
  8
0
  6
Continuous
 62
     7
100
AcDbLine
 10
-24.71155106742617
 20
-39.18456917579806
 30
0.0
 11
-24.61482389460207
 21
-39.08386321766829
 31
0.0
  0
LINE
  5
E2
330
3CD
100
AcDbEntity
  8
0
  6
Continuous
 62
     7
100
AcDbLine
 10
-24.8035216128651
 20
-39.30175257453721
 30
0.0
 11
-24.71155106742617
 21
-39.18456917579806
 31
0.0
  0
LINE
  5
E3
330
3CD
100
AcDbEntity
  8
0
  6
Continuous
 62
     7
100
AcDbLine
 10
-24.89003557953447
 20
-39.43452157746197
 30
0.0
 11
-24.8035216128651
 21
-39.30175257453721
 31
0.0
  0
LINE
  5
E4
330
3CD
100
AcDbEntity
  8
0
  6
Continuous
 62
     7
100
AcDbLine
 10
-24.97043454390996
 20
-39.58186573229341
 30
0.0
 11
-24.89003557953447
 21
-39.43452157746197
 31
0.0
  0
LINE
  5
E5
330
3CD
100
AcDbEntity
  8
0
  6
Continuous
 62
     7
100
AcDbLine
 10
-25.04410662132568
 20
-39.74266366104439
 30
0.0
 11
-24.97043454390996
 21
-39.58186573229341
 31
0.0
  0
LINE
  5
E6
330
3CD
100
AcDbEntity
  8
0
  6
Continuous
 62
     7
100
AcDbLine
 10
-25.11049112278806
 20
-39.91569159438313
 30
0.0
 11
-25.04410662132568
 21
-39.74266366104439
 31
0.0
  0
LINE
  5
E7
330
3CD
100
AcDbEntity
  8
0
  6
Continuous
 62
     7
100
AcDbLine
 10
-25.16908282215763
 20
-40.09963268525917
 30
0.0
 11
-25.11049112278806
 21
-39.91569159438313
 31
0.0
  0
LINE
  5
E8
330
3CD
100
AcDbEntity
  8
0
  6
Continuous
 62
     7
100
AcDbLine
 10
-25.21943580122252
 20
-40.29308703090918
 30
0.0
 11
-25.16908282215763
 21
-40.09963268525917
 31
0.0
  0
LINE
  5
E9
330
3CD
100
AcDbEntity
  8
0
  6
Continuous
 62
     7
100
AcDbLine
 10
-25.26116684340877
 20
-40.49458232694543
 30
0.0
 11
-25.21943580122252
 21
-40.29308703090918
 31
0.0
  0
LINE
  5
EA
330
3CD
100
AcDbEntity
  8
0
  6
Continuous
 62
     7
100
AcDbLine
 10
-25.29395835028799
 20
-40.7025850725031
 30
0.0
 11
-25.26116684340877
 21
-40.49458232694543
 31
0.0
  0
LINE
  5
EB
330
3CD
100
AcDbEntity
  8
0
  6
Continuous
 62
     7
100
AcDbLine
 10
-25.31756075869225
 20
-40.91551224109298
 30
0.0
 11
-25.29395835028799
 21
-40.7025850725031
 31
0.0
  0
LINE
  5
EC
330
3CD
100
AcDbEntity
  8
0
  6
Continuous
 62
     7
100
AcDbLine
 10
-25.33179444004099
 20
-41.13174332839025
 30
0.0
 11
-25.31756075869225
 21
-40.91551224109298
 31
0.0
  0
LINE
  5
ED
330
3CD
100
AcDbEntity
  8
0
  6
Continuous
 62
     7
100
AcDbLine
 10
-25.33655106742617
 20
-41.34963268525917
 30
0.0
 11
-25.33179444004099
 21
-41.13174332839025
 31
0.0
  0
ENDBLK
  5
7E
330
3CD
100
AcDbEntity
  8
0
100
AcDbBlockEnd
  0
BLOCK
  5
3D0
330
3CF
100
AcDbEntity
  8
0
100
AcDbBlockBegin
  2
DC_GROUP_2
 70
     0
 10
0.0
 20
0.0
 30
0.0
  3
DC_GROUP_2
  1

  0
CIRCLE
  5
EE
330
3CF
100
AcDbEntity
  8
0
  6
Continuous
 62
     7
100
AcDbCircle
 10
-5.086551067425716
 20
-38.34963268525918
 30
0.0
 40
1.229499999999915
  0
CIRCLE
  5
EF
330
3CF
100
AcDbEntity
  8
0
  6
Continuous
 62
     4
100
AcDbCircle
 10
-5.086551067425716
 20
-38.34963268525918
 30
0.0
 40
1.5
  0
ENDBLK
  5
81
330
3CF
100
AcDbEntity
  8
0
100
AcDbBlockEnd
  0
BLOCK
  5
3D2
330
3D1
100
AcDbEntity
  8
0
100
AcDbBlockBegin
  2
DC_GROUP_3
 70
     0
 10
0.0
 20
0.0
 30
0.0
  3
DC_GROUP_3
  1

  0
CIRCLE
  5
F0
330
3D1
100
AcDbEntity
  8
0
  6
Continuous
 62
     7
100
AcDbCircle
 10
-5.086551067425716
 20
-44.34963268525917
 30
0.0
 40
1.229499999999915
  0
CIRCLE
  5
F1
330
3D1
100
AcDbEntity
  8
0
  6
Continuous
 62
     4
100
AcDbCircle
 10
-5.086551067425716
 20
-44.34963268525917
 30
0.0
 40
1.5
  0
ENDBLK
  5
84
330
3D1
100
AcDbEntity
  8
0
100
AcDbBlockEnd
  0
BLOCK
  5
3D4
330
3D3
100
AcDbEntity
  8
0
100
AcDbBlockBegin
  2
DC_GROUP_4
 70
     0
 10
0.0
 20
0.0
 30
0.0
  3
DC_GROUP_4
  1

  0
ARC
  5
F2
330
3D3
100
AcDbEntity
  8
0
  6
Continuous
 62
     7
100
AcDbCircle
 10
19.41344893257292
 20
-40.34963268525917
 30
0.0
 40
0.5
100
AcDbArc
 50
269.9999938590595
 51
0.0
  0
ARC
  5
F3
330
3D3
100
AcDbEntity
  8
0
  6
Continuous
 62
     7
100
AcDbCircle
 10
19.41344893257292
 20
-42.34963268525917
 30
0.0
 40
0.5
100
AcDbArc
 50
0.0
 51
90.0
  0
CIRCLE
  5
F4
330
3D3
100
AcDbEntity
  8
0
  6
Continuous
 62
     7
100
AcDbCircle
 10
20.41344893257292
 20
-41.34963268525917
 30
0.0
 40
3.5
  0
LINE
  5
F5
330
3D3
100
AcDbEntity
  8
0
  6
Continuous
 62
     7
100
AcDbLine
 10
19.91344893257292
 20
-39.20150730191382
 30
0.0
 11
19.91344893257292
 21
-40.34963268525917
 31
0.0
  0
ARC
  5
F6
330
3D3
100
AcDbEntity
  8
0
  6
Continuous
 62
     7
100
AcDbCircle
 10
21.41344893257292
 20
-42.34963268525917
 30
0.0
 40
0.5
100
AcDbArc
 50
90.0
 51
180.0
  0
ARC
  5
F7
330
3D3
100
AcDbEntity
  8
0
  6
Continuous
 62
     7
100
AcDbCircle
 10
21.41344893257292
 20
-40.34963268525917
 30
0.0
 40
0.5
100
AcDbArc
 50
180.0
 51
269.9999938590595
  0
LINE
  5
F8
330
3D3
100
AcDbEntity
  8
0
  6
Continuous
 62
     7
100
AcDbLine
 10
20.91344893257292
 20
-40.34963268525917
 30
0.0
 11
20.91344893257292
 21
-39.20150730191382
 31
0.0
  0
LINE
  5
F9
330
3D3
100
AcDbEntity
  8
0
  6
Continuous
 62
     7
100
AcDbLine
 10
20.91344893257292
 20
-39.20150730191382
 30
0.0
 11
19.91344893257292
 21
-39.20150730191382
 31
0.0
  0
LINE
  5
FA
330
3D3
100
AcDbEntity
  8
0
  6
Continuous
 62
     7
100
AcDbLine
 10
20.91344893257292
 20
-43.49775806860362
 30
0.0
 11
19.91344893257292
 21
-43.49775806860362
 31
0.0
  0
LINE
  5
FB
330
3D3
100
AcDbEntity
  8
0
  6
Continuous
 62
     7
100
AcDbLine
 10
19.91344893257292
 20
-42.34963268525917
 30
0.0
 11
19.91344893257292
 21
-43.49775806860362
 31
0.0
  0
LINE
  5
FC
330
3D3
100
AcDbEntity
  8
0
  6
Continuous
 62
     7
100
AcDbLine
 10
20.91344893257292
 20
-43.49775806860362
 30
0.0
 11
20.91344893257292
 21
-42.34963268525917
 31
0.0
  0
LINE
  5
FD
330
3D3
100
AcDbEntity
  8
0
  6
Continuous
 62
     7
100
AcDbLine
 10
18.26532354922847
 20
-41.84963268526099
 30
0.0
 11
19.41344893257383
 21
-41.84963268526099
 31
0.0
  0
LINE
  5
FE
330
3D3
100
AcDbEntity
  8
0
  6
Continuous
 62
     7
100
AcDbLine
 10
19.41344893257383
 20
-40.84963268526099
 30
0.0
 11
18.26532354922847
 21
-40.84963268526099
 31
0.0
  0
LINE
  5
FF
330
3D3
100
AcDbEntity
  8
0
  6
Continuous
 62
     7
100
AcDbLine
 10
18.26532354922847
 20
-40.84963268526099
 30
0.0
 11
18.26532354922847
 21
-41.84963268526099
 31
0.0
  0
LINE
  5
100
330
3D3
100
AcDbEntity
  8
0
  6
Continuous
 62
     7
100
AcDbLine
 10
22.56157431591828
 20
-40.84963268526099
 30
0.0
 11
22.56157431591828
 21
-41.84963268526099
 31
0.0
  0
LINE
  5
101
330
3D3
100
AcDbEntity
  8
0
  6
Continuous
 62
     7
100
AcDbLine
 10
21.41344893257383
 20
-41.84963268526099
 30
0.0
 11
22.56157431591828
 21
-41.84963268526099
 31
0.0
  0
LINE
  5
102
330
3D3
100
AcDbEntity
  8
0
  6
Continuous
 62
     7
100
AcDbLine
 10
22.56157431591828
 20
-40.84963268526099
 30
0.0
 11
21.41344893257383
 21
-40.84963268526099
 31
0.0
  0
ENDBLK
  5
87
330
3D3
100
AcDbEntity
  8
0
100
AcDbBlockEnd
  0
BLOCK
  5
3D6
330
3D5
100
AcDbEntity
  8
0
100
AcDbBlockBegin
  2
DC_GROUP_5
 70
     0
 10
0.0
 20
0.0
 30
0.0
  3
DC_GROUP_5
  1

  0
ARC
  5
103
330
3D5
100
AcDbEntity
  8
0
  6
Continuous
 62
     7
100
AcDbCircle
 10
60.41344893257292
 20
-40.34963268525917
 30
0.0
 40
0.5
100
AcDbArc
 50
269.9999938590595
 51
0.0
  0
ARC
  5
104
330
3D5
100
AcDbEntity
  8
0
  6
Continuous
 62
     7
100
AcDbCircle
 10
60.41344893257292
 20
-42.34963268525917
 30
0.0
 40
0.5
100
AcDbArc
 50
0.0
 51
90.0
  0
CIRCLE
  5
105
330
3D5
100
AcDbEntity
  8
0
  6
Continuous
 62
     7
100
AcDbCircle
 10
61.41344893257292
 20
-41.34963268525917
 30
0.0
 40
3.5
  0
LINE
  5
106
330
3D5
100
AcDbEntity
  8
0
  6
Continuous
 62
     7
100
AcDbLine
 10
60.91344893257292
 20
-39.20150730191382
 30
0.0
 11
60.91344893257292
 21
-40.34963268525917
 31
0.0
  0
ARC
  5
107
330
3D5
100
AcDbEntity
  8
0
  6
Continuous
 62
     7
100
AcDbCircle
 10
62.41344893257291
 20
-42.34963268525917
 30
0.0
 40
0.5
100
AcDbArc
 50
90.0
 51
180.0
  0
ARC
  5
108
330
3D5
100
AcDbEntity
  8
0
  6
Continuous
 62
     7
100
AcDbCircle
 10
62.41344893257291
 20
-40.34963268525917
 30
0.0
 40
0.5
100
AcDbArc
 50
180.0
 51
269.9999938590595
  0
LINE
  5
109
330
3D5
100
AcDbEntity
  8
0
  6
Continuous
 62
     7
100
AcDbLine
 10
61.91344893257292
 20
-40.34963268525917
 30
0.0
 11
61.91344893257292
 21
-39.20150730191382
 31
0.0
  0
LINE
  5
10A
330
3D5
100
AcDbEntity
  8
0
  6
Continuous
 62
     7
100
AcDbLine
 10
61.91344893257292
 20
-39.20150730191382
 30
0.0
 11
60.91344893257292
 21
-39.20150730191382
 31
0.0
  0
LINE
  5
10B
330
3D5
100
AcDbEntity
  8
0
  6
Continuous
 62
     7
100
AcDbLine
 10
61.91344893257292
 20
-43.49775806860362
 30
0.0
 11
60.91344893257292
 21
-43.49775806860362
 31
0.0
  0
LINE
  5
10C
330
3D5
100
AcDbEntity
  8
0
  6
Continuous
 62
     7
100
AcDbLine
 10
60.91344893257292
 20
-42.34963268525917
 30
0.0
 11
60.91344893257292
 21
-43.49775806860362
 31
0.0
  0
LINE
  5
10D
330
3D5
100
AcDbEntity
  8
0
  6
Continuous
 62
     7
100
AcDbLine
 10
61.91344893257292
 20
-43.49775806860362
 30
0.0
 11
61.91344893257292
 21
-42.34963268525917
 31
0.0
  0
LINE
  5
10E
330
3D5
100
AcDbEntity
  8
0
  6
Continuous
 62
     7
100
AcDbLine
 10
59.26532354922847
 20
-41.84963268526099
 30
0.0
 11
60.41344893257382
 21
-41.84963268526099
 31
0.0
  0
LINE
  5
10F
330
3D5
100
AcDbEntity
  8
0
  6
Continuous
 62
     7
100
AcDbLine
 10
60.41344893257382
 20
-40.84963268526099
 30
0.0
 11
59.26532354922847
 21
-40.84963268526099
 31
0.0
  0
LINE
  5
110
330
3D5
100
AcDbEntity
  8
0
  6
Continuous
 62
     7
100
AcDbLine
 10
59.26532354922847
 20
-40.84963268526099
 30
0.0
 11
59.26532354922847
 21
-41.84963268526099
 31
0.0
  0
LINE
  5
111
330
3D5
100
AcDbEntity
  8
0
  6
Continuous
 62
     7
100
AcDbLine
 10
63.56157431591828
 20
-40.84963268526099
 30
0.0
 11
63.56157431591828
 21
-41.84963268526099
 31
0.0
  0
LINE
  5
112
330
3D5
100
AcDbEntity
  8
0
  6
Continuous
 62
     7
100
AcDbLine
 10
62.41344893257382
 20
-41.84963268526099
 30
0.0
 11
63.56157431591828
 21
-41.84963268526099
 31
0.0
  0
LINE
  5
113
330
3D5
100
AcDbEntity
  8
0
  6
Continuous
 62
     7
100
AcDbLine
 10
63.56157431591828
 20
-40.84963268526099
 30
0.0
 11
62.41344893257382
 21
-40.84963268526099
 31
0.0
  0
ENDBLK
  5
8A
330
3D5
100
AcDbEntity
  8
0
100
AcDbBlockEnd
  0
BLOCK
  5
3D8
330
3D7
100
AcDbEntity
  8
0
100
AcDbBlockBegin
  2
DC_GROUP_6
 70
     0
 10
0.0
 20
0.0
 30
0.0
  3
DC_GROUP_6
  1

  0
LINE
  5
114
330
3D7
100
AcDbEntity
  8
0
  6
Continuous
 62
     7
100
AcDbLine
 10
36.41344893257293
 20
-35.14963268526118
 30
0.0
 11
18.41344893257292
 21
-35.14963268526118
 31
0.0
  0
LINE
  5
115
330
3D7
100
AcDbEntity
  8
0
  6
Continuous
 62
     7
100
AcDbLine
 10
18.41344893257292
 20
-47.5496326852608
 30
0.0
 11
63.41344893257336
 21
-47.5496326852608
 31
0.0
  0
LINE
  5
116
330
3D7
100
AcDbEntity
  8
0
  6
Continuous
 62
     7
100
AcDbLine
 10
63.41344893257336
 20
-35.14963268526118
 30
0.0
 11
60.41344893257292
 21
-35.14963268526118
 31
0.0
  0
LINE
  5
117
330
3D7
100
AcDbEntity
  8
0
  6
Continuous
 62
     7
100
AcDbLine
 10
66.41344893257336
 20
-44.5496326852608
 30
0.0
 11
66.41344893257336
 21
-38.14963268526117
 31
0.0
  0
LINE
  5
118
330
3D7
100
AcDbEntity
  8
0
  6
Continuous
 62
     7
100
AcDbLine
 10
15.41344893257292
 20
-44.5496326852608
 30
0.0
 11
15.41344893257292
 21
-38.14963268526117
 31
0.0
  0
ARC
  5
119
330
3D7
100
AcDbEntity
  8
0
  6
Continuous
 62
     7
100
AcDbCircle
 10
18.41344893257292
 20
-38.14963268526117
 30
0.0
 40
3.0
100
AcDbArc
 50
90.0
 51
180.0
  0
ARC
  5
11A
330
3D7
100
AcDbEntity
  8
0
  6
Continuous
 62
     7
100
AcDbCircle
 10
18.41344893257292
 20
-44.5496326852608
 30
0.0
 40
3.0
100
AcDbArc
 50
180.0
 51
270.0
  0
ARC
  5
11B
330
3D7
100
AcDbEntity
  8
0
  6
Continuous
 62
     7
100
AcDbCircle
 10
63.41344893257336
 20
-44.5496326852608
 30
0.0
 40
3.0
100
AcDbArc
 50
270.0
 51
0.0
  0
ARC
  5
11C
330
3D7
100
AcDbEntity
  8
0
  6
Continuous
 62
     7
100
AcDbCircle
 10
63.41344893257336
 20
-38.14963268526117
 30
0.0
 40
3.0
100
AcDbArc
 50
0.0
 51
90.0
  0
LINE
  5
11D
330
3D7
100
AcDbEntity
  8
0
  6
Continuous
 62
     7
100
AcDbLine
 10
39.41344893257293
 20
-32.14963268526118
 30
0.0
 11
39.41344893257293
 21
-27.54963268526172
 31
0.0
  0
ARC
  5
11E
330
3D7
100
AcDbEntity
  8
0
  6
Continuous
 62
     7
100
AcDbCircle
 10
42.41344893257292
 20
-27.54963268526172
 30
0.0
 40
3.0
100
AcDbArc
 50
90.0
 51
180.0
  0
ARC
  5
11F
330
3D7
100
AcDbEntity
  8
0
  6
Continuous
 62
     7
100
AcDbCircle
 10
36.41344893257293
 20
-32.14963268526118
 30
0.0
 40
3.0
100
AcDbArc
 50
270.0
 51
0.0
  0
LINE
  5
120
330
3D7
100
AcDbEntity
  8
0
  6
Continuous
 62
     7
100
AcDbLine
 10
42.41344893257292
 20
-24.54963268526171
 30
0.0
 11
54.41344893257292
 21
-24.54963268526171
 31
0.0
  0
LINE
  5
121
330
3D7
100
AcDbEntity
  8
0
  6
Continuous
 62
     7
100
AcDbLine
 10
57.41344893257291
 20
-32.14963268526118
 30
0.0
 11
57.41344893257291
 21
-27.54963268526172
 31
0.0
  0
ARC
  5
122
330
3D7
100
AcDbEntity
  8
0
  6
Continuous
 62
     7
100
AcDbCircle
 10
60.41344893257292
 20
-32.14963268526118
 30
0.0
 40
3.0
100
AcDbArc
 50
180.0
 51
270.0
  0
ARC
  5
123
330
3D7
100
AcDbEntity
  8
0
  6
Continuous
 62
     7
100
AcDbCircle
 10
54.41344893257292
 20
-27.54963268526172
 30
0.0
 40
3.0
100
AcDbArc
 50
0.0
 51
90.0
  0
INSERT
  5
124
330
3D7
100
AcDbEntity
  8
0
  6
Continuous
100
AcDbBlockReference
  2
DC_GROUP_7
 10
0.0
 20
0.0
 30
0.0
  0
ENDBLK
  5
8D
330
3D7
100
AcDbEntity
  8
0
100
AcDbBlockEnd
  0
BLOCK
  5
3DA
330
3D9
100
AcDbEntity
  8
0
100
AcDbBlockBegin
  2
DC_GROUP_7
 70
     0
 10
0.0
 20
0.0
 30
0.0
  3
DC_GROUP_7
  1

  0
CIRCLE
  5
125
330
3D9
100
AcDbEntity
  8
0
  6
Continuous
 62
     7
100
AcDbCircle
 10
48.41344893257292
 20
-30.34963284926653
 30
0.0
 40
2.458500000000185
  0
CIRCLE
  5
126
330
3D9
100
AcDbEntity
  8
0
  6
Continuous
 62
     4
100
AcDbCircle
 10
48.41344893257292
 20
-30.34963284926653
 30
0.0
 40
3.0
  0
ENDBLK
  5
90
330
3D9
100
AcDbEntity
  8
0
100
AcDbBlockEnd
  0
BLOCK
  5
3DC
330
3DB
100
AcDbEntity
  8
0
100
AcDbBlockBegin
  2
DC_GROUP_8
 70
     0
 10
0.0
 20
0.0
 30
0.0
  3
DC_GROUP_8
  1

  0
LINE
  5
127
330
3DB
100
AcDbEntity
  8
0
  6
Continuous
 62
     7
100
AcDbLine
 10
44.66344893257292
 20
55.65036774345753
 30
0.0
 11
44.66344893257292
 21
52.65036774345754
 31
0.0
  0
LINE
  5
128
330
3DB
100
AcDbEntity
  8
0
  6
Continuous
 62
     7
100
AcDbLine
 10
44.66344893257292
 20
52.65036774345754
 30
0.0
 11
52.16344893257292
 21
52.65036774345754
 31
0.0
  0
LINE
  5
129
330
3DB
100
AcDbEntity
  8
0
  6
Continuous
 62
     7
100
AcDbLine
 10
52.16344893257292
 20
52.65036774345754
 30
0.0
 11
52.16344893257292
 21
55.65036774345753
 31
0.0
  0
LINE
  5
12A
330
3DB
100
AcDbEntity
  8
0
  6
Continuous
 62
     7
100
AcDbLine
 10
52.16344893257292
 20
55.65036774345753
 30
0.0
 11
44.66344893257292
 21
55.65036774345753
 31
0.0
  0
ENDBLK
  5
93
330
3DB
100
AcDbEntity
  8
0
100
AcDbBlockEnd
  0
BLOCK
  5
3DE
330
3DD
100
AcDbEntity
  8
0
100
AcDbBlockBegin
  2
*D10
 70
     1
 10
0.0
 20
0.0
 30
0.0
  3
*D10
  1

  0
LINE
  5
12B
330
3DD
100
AcDbEntity
  8
0
  6
Continuous
 62
     4
100
AcDbLine
 10
-116.0865510674262
 20
27.72554844961451
 30
0.0
 11
-116.0865510674262
 21
65.35036774345826
 31
0.0
  0
LINE
  5
12C
330
3DD
100
AcDbEntity
  8
0
  6
Continuous
 62
     4
100
AcDbLine
 10
-30.93655106742608
 20
56.10036774345826
 30
0.0
 11
-30.93655106742608
 21
65.35036774345826
 31
0.0
  0
LINE
  5
12D
330
3DD
100
AcDbEntity
  8
0
  6
Continuous
 62
     4
100
AcDbLine
 10
-116.0865510674262
 20
64.35036774345826
 30
0.0
 11
-30.93655106742608
 21
64.35036774345826
 31
0.0
  0
INSERT
  5
134
330
3DD
100
AcDbEntity
  8
0
 62
     4
100
AcDbBlockReference
  2
_OPEN30
 10
-116.0865510674262
 20
64.35036774345826
 30
0.0
 41
2.000153666985903
 42
1.99946476591035
 50
180.0
  0
INSERT
  5
135
330
3DD
100
AcDbEntity
  8
0
 62
     4
100
AcDbBlockReference
  2
_OPEN30
 10
-30.93655106742608
 20
64.35036774345826
 30
0.0
 41
2.000153666985903
 42
1.99946476591035
  0
TEXT
  5
137
330
3DD
100
AcDbEntity
  8
0
 62
     7
100
AcDbText
 10
-75.26155106742613
 20
65.15036774345826
 30
0.0
 40
3.5
  1
85
 41
0.6
  7
DCSTYLE0
 72
     5
 11
-71.76155106742612
 21
65.15036774345826
 31
0.0
100
AcDbText
  0
ENDBLK
  5
96
330
3DD
100
AcDbEntity
  8
0
100
AcDbBlockEnd
  0
BLOCK
  5
3EA
330
3DF
100
AcDbEntity
  8
0
100
AcDbBlockBegin
  2
_OPEN30
 70
     0
 10
0.0
 20
0.0
 30
0.0
  3
_OPEN30
  1

  0
LINE
  5
131
330
3DF
100
AcDbEntity
  8
0
  6
ByBlock
 62
     0
100
AcDbLine
 10
-1.0
 20
0.267949
 30
0.0
 11
0.0
 21
0.0
 31
0.0
  0
LINE
  5
132
330
3DF
100
AcDbEntity
  8
0
  6
ByBlock
 62
     0
100
AcDbLine
 10
0.0
 20
0.0
 30
0.0
 11
-1.0
 21
-0.267949
 31
0.0
  0
LINE
  5
133
330
3DF
100
AcDbEntity
  8
0
  6
ByBlock
 62
     0
100
AcDbLine
 10
0.0
 20
0.0
 30
0.0
 11
-1.0
 21
0.0
 31
0.0
  0
ENDBLK
  5
130
330
3DF
100
AcDbEntity
  8
0
100
AcDbBlockEnd
  0
BLOCK
  5
3E1
330
3E0
100
AcDbEntity
  8
0
100
AcDbBlockBegin
  2
*D12
 70
     1
 10
0.0
 20
0.0
 30
0.0
  3
*D12
  1

  0
LINE
  5
138
330
3E0
100
AcDbEntity
  8
0
  6
Continuous
 62
     4
100
AcDbLine
 10
-26.08655106742572
 20
61.35036774345826
 30
0.0
 11
-26.08655106742572
 21
73.35036774345827
 31
0.0
  0
LINE
  5
139
330
3E0
100
AcDbEntity
  8
0
  6
Continuous
 62
     4
100
AcDbLine
 10
-116.0865510674262
 20
65.35036774345826
 30
0.0
 11
-116.0865510674262
 21
73.35036774345827
 31
0.0
  0
LINE
  5
13A
330
3E0
100
AcDbEntity
  8
0
  6
Continuous
 62
     4
100
AcDbLine
 10
-116.0865510674262
 20
72.35036774345826
 30
0.0
 11
-26.08655106742572
 21
72.35036774345826
 31
0.0
  0
INSERT
  5
13B
330
3E0
100
AcDbEntity
  8
0
 62
     4
100
AcDbBlockReference
  2
_OPEN30
 10
-116.0865510674262
 20
72.35036774345826
 30
0.0
 41
2.000153666985903
 42
1.99946476591035
 50
180.0
  0
INSERT
  5
13C
330
3E0
100
AcDbEntity
  8
0
 62
     4
100
AcDbBlockReference
  2
_OPEN30
 10
-26.08655106742572
 20
72.35036774345826
 30
0.0
 41
2.000153666985903
 42
1.99946476591035
  0
TEXT
  5
13D
330
3E0
100
AcDbEntity
  8
0
 62
     7
100
AcDbText
 10
-72.83655106742594
 20
73.15036774345826
 30
0.0
 40
3.5
  1
90
 41
0.6666666666666668
  7
DCSTYLE0
 72
     5
 11
-69.33655106742595
 21
73.15036774345826
 31
0.0
100
AcDbText
  0
ENDBLK
  5
99
330
3E0
100
AcDbEntity
  8
0
100
AcDbBlockEnd
  0
BLOCK
  5
3E3
330
3E2
100
AcDbEntity
  8
0
100
AcDbBlockBegin
  2
DA_IMAGEDIMGROUP_1
 70
     0
 10
0.0
 20
0.0
 30
0.0
  3
DA_IMAGEDIMGROUP_1
  1

  0
LINE
  5
13E
330
3E2
100
AcDbEntity
  8
0
  6
Continuous
 62
     4
100
AcDbLine
 10
-124.0865510674262
 20
-58.84963268526007
 30
0.0
 11
-124.0865510674262
 21
-66.84963268525916
 31
0.0
  0
LINE
  5
13F
330
3E2
100
AcDbEntity
  8
0
  6
Continuous
 62
     4
100
AcDbLine
 10
90.91344893257472
 20
-41.34963268525917
 30
0.0
 11
90.91344893257472
 21
-66.84963268525916
 31
0.0
  0
LINE
  5
140
330
3E2
100
AcDbEntity
  8
0
  6
Continuous
 62
     4
100
AcDbLine
 10
-116.0865510674262
 20
-45.84963268526099
 30
0.0
 11
-116.0865510674262
 21
-58.84963268526007
 31
0.0
  0
LINE
  5
141
330
3E2
100
AcDbEntity
  8
0
  6
Continuous
 62
     4
100
AcDbLine
 10
-124.0865510674262
 20
-41.34963268526099
 30
0.0
 11
-124.0865510674262
 21
-58.84963268526007
 31
0.0
  0
LINE
  5
142
330
3E2
100
AcDbEntity
  8
0
  6
Continuous
 62
     4
100
AcDbLine
 10
-24.08655106742617
 20
-45.82949058496614
 30
0.0
 11
-24.08655106742617
 21
-58.84963268526007
 31
0.0
  0
LINE
  5
143
330
3E2
100
AcDbEntity
  8
0
  6
Continuous
 62
     4
100
AcDbLine
 10
86.91344893257383
 20
-45.84963268525917
 30
0.0
 11
86.91344893257383
 21
-58.84963268526007
 31
0.0
  0
LINE
  5
144
330
3E2
100
AcDbEntity
  8
0
  6
Continuous
 62
     4
100
AcDbLine
 10
-124.0865510674262
 20
-65.84963268525917
 30
0.0
 11
90.91344893257472
 21
-65.84963268525917
 31
0.0
  0
INSERT
  5
145
330
3E2
100
AcDbEntity
  8
0
 62
     4
100
AcDbBlockReference
  2
_OPEN30
 10
-124.0865510674262
 20
-65.84963268525917
 30
0.0
 41
2.000153666985903
 42
1.99946476591035
 50
180.0
  0
INSERT
  5
146
330
3E2
100
AcDbEntity
  8
0
 62
     4
100
AcDbBlockReference
  2
_OPEN30
 10
90.91344893257472
 20
-65.84963268525917
 30
0.0
 41
2.000153666985903
 42
1.99946476591035
  0
LINE
  5
147
330
3E2
100
AcDbEntity
  8
0
  6
Continuous
 62
     4
100
AcDbLine
 10
-124.0865510674262
 20
-57.84963268526007
 30
0.0
 11
-116.0865510674262
 21
-57.84963268526007
 31
0.0
  0
INSERT
  5
148
330
3E2
100
AcDbEntity
  8
0
 62
     4
100
AcDbBlockReference
  2
_OPEN30
 10
-124.0865510674262
 20
-57.84963268526007
 30
0.0
 41
2.000153666985903
 42
1.99946476591035
 50
180.0
  0
INSERT
  5
149
330
3E2
100
AcDbEntity
  8
0
 62
     4
100
AcDbBlockReference
  2
_OPEN30
 10
-116.0865510674262
 20
-57.84963268526007
 30
0.0
 41
2.000153666985903
 42
1.99946476591035
  0
LINE
  5
14A
330
3E2
100
AcDbEntity
  8
0
  6
Continuous
 62
     4
100
AcDbLine
 10
-116.0865510674262
 20
-57.84963268526007
 30
0.0
 11
-24.08655106742617
 21
-57.84963268526007
 31
0.0
  0
INSERT
  5
14B
330
3E2
100
AcDbEntity
  8
0
 62
     4
100
AcDbBlockReference
  2
_OPEN30
 10
-116.0865510674262
 20
-57.84963268526007
 30
0.0
 41
2.000153666985903
 42
1.99946476591035
 50
180.0
  0
INSERT
  5
14C
330
3E2
100
AcDbEntity
  8
0
 62
     4
100
AcDbBlockReference
  2
_OPEN30
 10
-24.08655106742617
 20
-57.84963268526007
 30
0.0
 41
2.000153666985903
 42
1.99946476591035
  0
LINE
  5
14D
330
3E2
100
AcDbEntity
  8
0
  6
Continuous
 62
     4
100
AcDbLine
 10
-24.08655106742617
 20
-57.84963268526007
 30
0.0
 11
86.91344893257383
 21
-57.84963268526007
 31
0.0
  0
INSERT
  5
14E
330
3E2
100
AcDbEntity
  8
0
 62
     4
100
AcDbBlockReference
  2
_OPEN30
 10
-24.08655106742617
 20
-57.84963268526007
 30
0.0
 41
2.000153666985903
 42
1.99946476591035
 50
180.0
  0
INSERT
  5
14F
330
3E2
100
AcDbEntity
  8
0
 62
     4
100
AcDbBlockReference
  2
_OPEN30
 10
86.91344893257383
 20
-57.84963268526007
 30
0.0
 41
2.000153666985903
 42
1.99946476591035
  0
LINE
  5
150
330
3E2
100
AcDbEntity
  8
0
  6
Continuous
 62
     4
100
AcDbLine
 10
86.91344893257383
 20
-57.84963268526007
 30
0.0
 11
90.91344893257472
 21
-57.84963268526007
 31
0.0
  0
INSERT
  5
151
330
3E2
100
AcDbEntity
  8
0
 62
     4
100
AcDbBlockReference
  2
_OPEN30
 10
86.91344893257383
 20
-57.84963268526007
 30
0.0
 41
2.000153666985903
 42
1.99946476591035
 50
180.0
  0
INSERT
  5
152
330
3E2
100
AcDbEntity
  8
0
 62
     4
100
AcDbBlockReference
  2
_OPEN30
 10
90.91344893257472
 20
-57.84963268526007
 30
0.0
 41
2.000153666985903
 42
1.99946476591035
  0
TEXT
  5
153
330
3E2
100
AcDbEntity
  8
0
 62
     7
100
AcDbText
 10
-19.21155106742572
 20
-65.04963268525917
 30
0.0
 40
3.5
  1
215
 41
0.6428571428571424
  7
DCSTYLE0
 72
     5
 11
-13.96155106742572
 21
-65.04963268525917
 31
0.0
100
AcDbText
  0
TEXT
  5
154
330
3E2
100
AcDbEntity
  8
0
 62
     7
100
AcDbText
 10
-120.9615510674262
 20
-57.04963268526007
 30
0.0
 40
3.5
  1
8
 41
0.75
  7
DCSTYLE0
 72
     5
 11
-119.2115510674262
 21
-57.04963268526007
 31
0.0
100
AcDbText
  0
TEXT
  5
155
330
3E2
100
AcDbEntity
  8
0
 62
     7
100
AcDbText
 10
-71.83655106742617
 20
-57.04963268526007
 30
0.0
 40
3.5
  1
92
 41
0.6000000000000001
  7
DCSTYLE0
 72
     5
 11
-68.33655106742617
 21
-57.04963268526007
 31
0.0
100
AcDbText
  0
TEXT
  5
156
330
3E2
100
AcDbEntity
  8
0
 62
     7
100
AcDbText
 10
28.78844893257383
 20
-57.04963268526007
 30
0.0
 40
3.5
  1
111
 41
0.9000000000000001
  7
DCSTYLE0
 72
     5
 11
34.03844893257383
 21
-57.04963268526007
 31
0.0
100
AcDbText
  0
TEXT
  5
157
330
3E2
100
AcDbEntity
  8
0
 62
     7
100
AcDbText
 10
88.03844893257426
 20
-57.04963268526007
 30
0.0
 40
3.5
  1
4
 41
0.75
  7
DCSTYLE0
 72
     5
 11
89.78844893257427
 21
-57.04963268526007
 31
0.0
100
AcDbText
  0
ENDBLK
  5
9C
330
3E2
100
AcDbEntity
  8
0
100
AcDbBlockEnd
  0
BLOCK
  5
3E5
330
3E4
100
AcDbEntity
  8
0
100
AcDbBlockBegin
  2
*D14
 70
     1
 10
0.0
 20
0.0
 30
0.0
  3
*D14
  1

  0
LINE
  5
158
330
3E4
100
AcDbEntity
  8
0
  6
Continuous
 62
     4
100
AcDbLine
 10
100.9134489325738
 20
22.65036774345754
 30
0.0
 11
100.9134489325738
 21
54.15036774345754
 31
0.0
  0
INSERT
  5
159
330
3E4
100
AcDbEntity
  8
0
 62
     4
100
AcDbBlockReference
  2
_OPEN30
 10
100.9134489325738
 20
22.65036774345754
 30
0.0
 41
2.000153666985903
 42
1.99946476591035
 50
270.0
  0
INSERT
  5
15A
330
3E4
100
AcDbEntity
  8
0
 62
     4
100
AcDbBlockReference
  2
_OPEN30
 10
100.9134489325738
 20
54.15036774345754
 30
0.0
 41
2.000153666985903
 42
1.99946476591035
 50
90.0
  0
LINE
  5
15B
330
3E4
100
AcDbEntity
  8
0
  6
Continuous
 62
     4
100
AcDbLine
 10
-36.44851102744315
 20
22.65036774345754
 30
0.0
 11
101.9134489325738
 21
22.65036774345754
 31
0.0
  0
LINE
  5
15C
330
3E4
100
AcDbEntity
  8
0
  6
Continuous
 62
     4
100
AcDbLine
 10
84.91344870907369
 20
54.15036774345754
 30
0.0
 11
101.9134489325738
 21
54.15036774345754
 31
0.0
  0
TEXT
  5
15D
330
3E4
100
AcDbEntity
  8
0
 62
     7
100
AcDbText
 10
100.1134489325738
 20
34.90036774345754
 30
0.0
 40
3.5
  1
31.5
 50
90.0
 41
0.75
  7
DCSTYLE0
 72
     5
 11
100.1134489325738
 21
41.90036774345753
 31
0.0
100
AcDbText
  0
ENDBLK
  5
9F
330
3E4
100
AcDbEntity
  8
0
100
AcDbBlockEnd
  0
BLOCK
  5
3E7
330
3E6
100
AcDbEntity
  8
0
100
AcDbBlockBegin
  2
*D15
 70
     1
 10
0.0
 20
0.0
 30
0.0
  3
*D15
  1

  0
LINE
  5
15E
330
3E6
100
AcDbEntity
  8
0
  6
Continuous
 62
     4
100
AcDbLine
 10
100.9134489325738
 20
54.15036774345754
 30
0.0
 11
100.9134489325738
 21
71.93497743428451
 31
0.0
  0
INSERT
  5
15F
330
3E6
100
AcDbEntity
  8
0
 62
     4
100
AcDbBlockReference
  2
_OPEN30
 10
100.9134489325738
 20
54.15036774345754
 30
0.0
 41
2.000153666985903
 42
1.99946476591035
 50
270.0
  0
INSERT
  5
160
330
3E6
100
AcDbEntity
  8
0
 62
     4
100
AcDbBlockReference
  2
_OPEN30
 10
100.9134489325738
 20
71.93497743428451
 30
0.0
 41
2.000153666985903
 42
1.99946476591035
 50
90.0
  0
LINE
  5
161
330
3E6
100
AcDbEntity
  8
0
  6
Continuous
 62
     4
100
AcDbLine
 10
84.91344870907369
 20
54.15036774345754
 30
0.0
 11
101.9134489325738
 21
54.15036774345754
 31
0.0
  0
LINE
  5
162
330
3E6
100
AcDbEntity
  8
0
  6
Continuous
 62
     4
100
AcDbLine
 10
88.31537272121977
 20
71.93497743428451
 30
0.0
 11
101.9134489325738
 21
71.93497743428451
 31
0.0
  0
TEXT
  5
163
330
3E6
100
AcDbEntity
  8
0
 62
     7
100
AcDbText
 10
100.1134489325738
 20
59.54267258887103
 30
0.0
 40
3.5
  1
17.5
 50
90.0
 41
0.7500000000000001
  7
DCSTYLE0
 72
     5
 11
100.1134489325738
 21
66.54267258887102
 31
0.0
100
AcDbText
  0
ENDBLK
  5
A2
330
3E6
100
AcDbEntity
  8
0
100
AcDbBlockEnd
  0
BLOCK
  5
3E9
330
3E8
100
AcDbEntity
  8
0
100
AcDbBlockBegin
  2
*D16
 70
     1
 10
0.0
 20
0.0
 30
0.0
  3
*D16
  1

  0
LINE
  5
164
330
3E8
100
AcDbEntity
  8
0
  6
Continuous
 62
     4
100
AcDbLine
 10
87.02239361100827
 20
-43.84011943048881
 30
0.0
 11
101.9134489325747
 21
-43.84011943048881
 31
0.0
  0
LINE
  5
165
330
3E8
100
AcDbEntity
  8
0
  6
Continuous
 62
     4
100
AcDbLine
 10
90.91344893257472
 20
-18.44963284946152
 30
0.0
 11
101.9134489325747
 21
-18.44963284946152
 31
0.0
  0
LINE
  5
166
330
3E8
100
AcDbEntity
  8
0
  6
Continuous
 62
     4
100
AcDbLine
 10
100.9134489325747
 20
-43.84011943048881
 30
0.0
 11
100.9134489325747
 21
-18.44963284946152
 31
0.0
  0
INSERT
  5
167
330
3E8
100
AcDbEntity
  8
0
 62
     4
100
AcDbBlockReference
  2
_OPEN30
 10
100.9134489325747
 20
-43.84011943048881
 30
0.0
 41
2.000153666985903
 42
1.99946476591035
 50
270.0
  0
INSERT
  5
168
330
3E8
100
AcDbEntity
  8
0
 62
     4
100
AcDbBlockReference
  2
_OPEN30
 10
100.9134489325747
 20
-18.44963284946152
 30
0.0
 41
2.000153666985903
 42
1.99946476591035
 50
90.0
  0
TEXT
  5
169
330
3E8
100
AcDbEntity
  8
0
 62
     7
100
AcDbText
 10
100.1134489325747
 20
-41.64487613997517
 30
0.0
 40
3.5
  1
環下寸法25.5
 50
90.0
 41
0.7692307692307694
  7
DCSTYLE0
 72
     5
 11
100.1134489325747
 21
-20.64487613997517
 31
0.0
100
AcDbText
  0
ENDBLK
  5
A5
330
3E8
100
AcDbEntity
  8
0
100
AcDbBlockEnd
  0
BLOCK
  5
444
330
442
100
AcDbEntity
  8
0
100
AcDbBlockBegin
  2
GENAXEH
 70
     0
 10
0.0
 20
0.0
 30
0.0
  3
GENAXEH
  1

  0
LINE
  5
443
330
442
100
AcDbEntity
  8
0
100
AcDbLine
 10
-1.0
 20
0.0
 30
0.0
 11
1.0
 21
0.0
 31
0.0
  0
ENDBLK
  5
445
330
442
100
AcDbEntity
  8
0
100
AcDbBlockEnd
  0
BLOCK
  5
451
330
450
100
AcDbEntity
  8
0
100
AcDbBlockBegin
  2
_ACMFILLEDHALF
 70
     0
 10
0.0
 20
0.0
 30
0.0
  3
_ACMFILLEDHALF
  1

  0
TRACE
  5
453
330
450
100
AcDbEntity
  8
0
 62
     0
100
AcDbTrace
 10
-0.8
 20
0.0
 30
0.0
 11
-1.0
 21
0.166666666
 31
0.0
 12
0.0
 22
0.0
 32
0.0
 13
0.0
 23
0.0
 33
0.0
  0
LINE
  5
454
330
450
100
AcDbEntity
  8
0
 62
     0
100
AcDbLine
 10
-1.0
 20
0.0
 30
0.0
 11
-0.8
 21
0.0
 31
0.0
  0
ENDBLK
  5
452
330
450
100
AcDbEntity
  8
0
100
AcDbBlockEnd
  0
ENDSEC
  0
SECTION
  2
ENTITIES
  0
LINE
  5
16A
330
387
100
AcDbEntity
  8
0
  6
Continuous
 62
     7
100
AcDbLine
 10
87.57713776245191
 20
-47.84963268526099
 30
0.0
 11
-120.7502405939708
 21
-47.84963268525917
 31
0.0
  0
CIRCLE
  5
16B
330
387
100
AcDbEntity
  8
0
  6
Continuous
 62
     7
100
AcDbCircle
 10
-116.0865510674262
 20
-41.34963268526099
 30
0.0
 40
2.5
  0
ARC
  5
16C
330
387
100
AcDbEntity
  8
0
  6
Continuous
 62
     7
100
AcDbCircle
 10
-116.0865510674262
 20
-41.34963268526099
 30
0.0
 40
8.0
100
AcDbArc
 50
125.6590876961389
 51
234.3409061629237
  0
LINE
  5
16D
330
387
100
AcDbEntity
  8
0
  6
Continuous
 62
     7
100
AcDbLine
 10
86.10996442046554
 20
-43.26474379305818
 30
0.0
 11
86.02956545609005
 21
-43.11739963822673
 31
0.0
  0
LINE
  5
16E
330
387
100
AcDbEntity
  8
0
  6
Continuous
 62
     7
100
AcDbLine
 10
87.7973324090567
 20
-43.11739963822673
 30
0.0
 11
87.71693344468124
 21
-43.26474379305818
 31
0.0
  0
ARC
  5
16F
330
387
100
AcDbEntity
  8
0
  6
Continuous
 62
     7
100
AcDbCircle
 10
82.91344893257472
 20
-41.34963268525917
 30
0.0
 40
8.0
100
AcDbArc
 50
305.6590815552008
 51
54.3409123038611
  0
LINE
  5
170
330
387
100
AcDbEntity
  8
0
  6
Continuous
 62
     7
100
AcDbLine
 10
87.02239361100827
 20
-43.84011943048881
 30
0.0
 11
86.91344893257383
 21
-43.84963268525917
 31
0.0
  0
LINE
  5
171
330
387
100
AcDbEntity
  8
0
  6
Continuous
 62
     7
100
AcDbLine
 10
86.19647838713492
 20
-43.39751279598295
 30
0.0
 11
86.10996442046554
 21
-43.26474379305818
 31
0.0
  0
LINE
  5
172
330
387
100
AcDbEntity
  8
0
  6
Continuous
 62
     7
100
AcDbLine
 10
86.28844893257383
 20
-43.51469619472028
 30
0.0
 11
86.19647838713492
 21
-43.39751279598295
 31
0.0
  0
LINE
  5
173
330
387
100
AcDbEntity
  8
0
  6
Continuous
 62
     7
100
AcDbLine
 10
86.38517610539793
 20
-43.61540215285185
 30
0.0
 11
86.28844893257383
 21
-43.51469619472028
 31
0.0
  0
LINE
  5
174
330
387
100
AcDbEntity
  8
0
  6
Continuous
 62
     7
100
AcDbLine
 10
86.48592375341605
 20
-43.69886423722436
 30
0.0
 11
86.38517610539793
 21
-43.61540215285185
 31
0.0
  0
LINE
  5
175
330
387
100
AcDbEntity
  8
0
  6
Continuous
 62
     7
100
AcDbLine
 10
86.58992512619487
 20
-43.76444725098281
 30
0.0
 11
86.48592375341605
 21
-43.69886423722436
 31
0.0
  0
LINE
  5
176
330
387
100
AcDbEntity
  8
0
  6
Continuous
 62
     7
100
AcDbLine
 10
86.69638871048983
 20
-43.81165206779132
 30
0.0
 11
86.58992512619487
 21
-43.76444725098281
 31
0.0
  0
LINE
  5
177
330
387
100
AcDbEntity
  8
0
  6
Continuous
 62
     7
100
AcDbLine
 10
86.80450425413845
 20
-43.84011943048881
 30
0.0
 11
86.69638871048983
 21
-43.81165206779132
 31
0.0
  0
LINE
  5
178
330
387
100
AcDbEntity
  8
0
  6
Continuous
 62
     7
100
AcDbLine
 10
86.91344893257383
 20
-43.84963268525917
 30
0.0
 11
86.80450425413845
 21
-43.84011943048881
 31
0.0
  0
LINE
  5
179
330
387
100
AcDbEntity
  8
0
  6
Continuous
 62
     7
100
AcDbLine
 10
87.13050915465691
 20
-43.81165206779132
 30
0.0
 11
87.02239361100827
 21
-43.84011943048881
 31
0.0
  0
LINE
  5
17A
330
387
100
AcDbEntity
  8
0
  6
Continuous
 62
     7
100
AcDbLine
 10
87.23697273895185
 20
-43.76444725098281
 30
0.0
 11
87.13050915465691
 21
-43.81165206779132
 31
0.0
  0
LINE
  5
17B
330
387
100
AcDbEntity
  8
0
  6
Continuous
 62
     7
100
AcDbLine
 10
87.3409741117307
 20
-43.69886423722436
 30
0.0
 11
87.23697273895185
 21
-43.76444725098281
 31
0.0
  0
LINE
  5
17C
330
387
100
AcDbEntity
  8
0
  6
Continuous
 62
     7
100
AcDbLine
 10
87.44172175974973
 20
-43.61540215285185
 30
0.0
 11
87.3409741117307
 21
-43.69886423722436
 31
0.0
  0
LINE
  5
17D
330
387
100
AcDbEntity
  8
0
  6
Continuous
 62
     7
100
AcDbLine
 10
87.53844893257383
 20
-43.51469619472028
 30
0.0
 11
87.44172175974973
 21
-43.61540215285185
 31
0.0
  0
LINE
  5
17E
330
387
100
AcDbEntity
  8
0
  6
Continuous
 62
     7
100
AcDbLine
 10
87.63041947801182
 20
-43.39751279598295
 30
0.0
 11
87.53844893257383
 21
-43.51469619472028
 31
0.0
  0
LINE
  5
17F
330
387
100
AcDbEntity
  8
0
  6
Continuous
 62
     7
100
AcDbLine
 10
87.71693344468124
 20
-43.26474379305818
 30
0.0
 11
87.63041947801182
 21
-43.39751279598295
 31
0.0
  0
LINE
  5
180
330
387
100
AcDbEntity
  8
0
  6
Continuous
 62
     7
100
AcDbLine
 10
86.91344893257383
 20
-38.84963268525917
 30
0.0
 11
87.02239361100827
 21
-38.85914594003134
 31
0.0
  0
LINE
  5
181
330
387
100
AcDbEntity
  8
0
  6
Continuous
 62
     7
100
AcDbLine
 10
85.66820555995901
 20
-41.56752204212988
 30
0.0
 11
85.66344893257383
 21
-41.34963268525917
 31
0.0
  0
LINE
  5
182
330
387
100
AcDbEntity
  8
0
  6
Continuous
 62
     7
100
AcDbLine
 10
85.68243924130774
 20
-41.78375312942717
 30
0.0
 11
85.66820555995901
 21
-41.56752204212988
 31
0.0
  0
LINE
  5
183
330
387
100
AcDbEntity
  8
0
  6
Continuous
 62
     7
100
AcDbLine
 10
85.706041649712
 20
-41.99668029801705
 30
0.0
 11
85.68243924130774
 21
-41.78375312942717
 31
0.0
  0
LINE
  5
184
330
387
100
AcDbEntity
  8
0
  6
Continuous
 62
     7
100
AcDbLine
 10
85.73883315659124
 20
-42.20468304357472
 30
0.0
 11
85.706041649712
 21
-41.99668029801705
 31
0.0
  0
LINE
  5
185
330
387
100
AcDbEntity
  8
0
  6
Continuous
 62
     7
100
AcDbLine
 10
85.78056419877748
 20
-42.40617833961096
 30
0.0
 11
85.73883315659124
 21
-42.20468304357472
 31
0.0
  0
LINE
  5
186
330
387
100
AcDbEntity
  8
0
  6
Continuous
 62
     7
100
AcDbLine
 10
85.83091717784238
 20
-42.59963268525917
 30
0.0
 11
85.78056419877748
 21
-42.40617833961096
 31
0.0
  0
LINE
  5
187
330
387
100
AcDbEntity
  8
0
  6
Continuous
 62
     7
100
AcDbLine
 10
85.88950887721194
 20
-42.78357377613702
 30
0.0
 11
85.83091717784238
 21
-42.59963268525917
 31
0.0
  0
LINE
  5
188
330
387
100
AcDbEntity
  8
0
  6
Continuous
 62
     7
100
AcDbLine
 10
85.95589337867432
 20
-42.95660170947575
 30
0.0
 11
85.88950887721194
 21
-42.78357377613702
 31
0.0
  0
LINE
  5
189
330
387
100
AcDbEntity
  8
0
  6
Continuous
 62
     7
100
AcDbLine
 10
86.02956545609005
 20
-43.11739963822673
 30
0.0
 11
85.95589337867432
 21
-42.95660170947575
 31
0.0
  0
LINE
  5
18A
330
387
100
AcDbEntity
  8
0
  6
Continuous
 62
     7
100
AcDbLine
 10
86.80450425413845
 20
-38.85914594003134
 30
0.0
 11
86.91344893257383
 21
-38.84963268525917
 31
0.0
  0
LINE
  5
18B
330
387
100
AcDbEntity
  8
0
  6
Continuous
 62
     7
100
AcDbLine
 10
86.69638871048983
 20
-38.88761330272883
 30
0.0
 11
86.80450425413845
 21
-38.85914594003134
 31
0.0
  0
LINE
  5
18C
330
387
100
AcDbEntity
  8
0
  6
Continuous
 62
     7
100
AcDbLine
 10
86.58992512619487
 20
-38.93481811953735
 30
0.0
 11
86.69638871048983
 21
-38.88761330272883
 31
0.0
  0
LINE
  5
18D
330
387
100
AcDbEntity
  8
0
  6
Continuous
 62
     7
100
AcDbLine
 10
86.48592375341605
 20
-39.00040113329578
 30
0.0
 11
86.58992512619487
 21
-38.93481811953735
 31
0.0
  0
LINE
  5
18E
330
387
100
AcDbEntity
  8
0
  6
Continuous
 62
     7
100
AcDbLine
 10
86.38517610539793
 20
-39.08386321766829
 30
0.0
 11
86.48592375341605
 21
-39.00040113329578
 31
0.0
  0
LINE
  5
18F
330
387
100
AcDbEntity
  8
0
  6
Continuous
 62
     7
100
AcDbLine
 10
86.28844893257383
 20
-39.18456917579806
 30
0.0
 11
86.38517610539793
 21
-39.08386321766829
 31
0.0
  0
LINE
  5
190
330
387
100
AcDbEntity
  8
0
  6
Continuous
 62
     7
100
AcDbLine
 10
86.19647838713492
 20
-39.30175257453721
 30
0.0
 11
86.28844893257383
 21
-39.18456917579806
 31
0.0
  0
LINE
  5
191
330
387
100
AcDbEntity
  8
0
  6
Continuous
 62
     7
100
AcDbLine
 10
86.10996442046554
 20
-39.43452157746197
 30
0.0
 11
86.19647838713492
 21
-39.30175257453721
 31
0.0
  0
LINE
  5
192
330
387
100
AcDbEntity
  8
0
  6
Continuous
 62
     7
100
AcDbLine
 10
86.02956545609005
 20
-39.58186573229341
 30
0.0
 11
86.10996442046554
 21
-39.43452157746197
 31
0.0
  0
LINE
  5
193
330
387
100
AcDbEntity
  8
0
  6
Continuous
 62
     7
100
AcDbLine
 10
85.95589337867432
 20
-39.74266366104439
 30
0.0
 11
86.02956545609005
 21
-39.58186573229341
 31
0.0
  0
LINE
  5
194
330
387
100
AcDbEntity
  8
0
  6
Continuous
 62
     7
100
AcDbLine
 10
85.88950887721194
 20
-39.91569159438313
 30
0.0
 11
85.95589337867432
 21
-39.74266366104439
 31
0.0
  0
LINE
  5
195
330
387
100
AcDbEntity
  8
0
  6
Continuous
 62
     7
100
AcDbLine
 10
85.83091717784238
 20
-40.09963268525917
 30
0.0
 11
85.88950887721194
 21
-39.91569159438313
 31
0.0
  0
LINE
  5
196
330
387
100
AcDbEntity
  8
0
  6
Continuous
 62
     7
100
AcDbLine
 10
85.78056419877748
 20
-40.29308703090737
 30
0.0
 11
85.83091717784238
 21
-40.09963268525917
 31
0.0
  0
LINE
  5
197
330
387
100
AcDbEntity
  8
0
  6
Continuous
 62
     7
100
AcDbLine
 10
85.73883315659124
 20
-40.49458232694543
 30
0.0
 11
85.78056419877748
 21
-40.29308703090737
 31
0.0
  0
LINE
  5
198
330
387
100
AcDbEntity
  8
0
  6
Continuous
 62
     7
100
AcDbLine
 10
85.706041649712
 20
-40.7025850725031
 30
0.0
 11
85.73883315659124
 21
-40.49458232694543
 31
0.0
  0
LINE
  5
199
330
387
100
AcDbEntity
  8
0
  6
Continuous
 62
     7
100
AcDbLine
 10
85.68243924130774
 20
-40.91551224109298
 30
0.0
 11
85.706041649712
 21
-40.7025850725031
 31
0.0
  0
LINE
  5
19A
330
387
100
AcDbEntity
  8
0
  6
Continuous
 62
     7
100
AcDbLine
 10
85.66820555995901
 20
-41.13174332839025
 30
0.0
 11
85.68243924130774
 21
-40.91551224109298
 31
0.0
  0
LINE
  5
19B
330
387
100
AcDbEntity
  8
0
  6
Continuous
 62
     7
100
AcDbLine
 10
85.66344893257383
 20
-41.34963268525917
 30
0.0
 11
85.66820555995901
 21
-41.13174332839025
 31
0.0
  0
LINE
  5
19C
330
387
100
AcDbEntity
  8
0
  6
Continuous
 62
     7
100
AcDbLine
 10
87.87100448647242
 20
-42.95660170947575
 30
0.0
 11
87.7973324090567
 21
-43.11739963822673
 31
0.0
  0
LINE
  5
19D
330
387
100
AcDbEntity
  8
0
  6
Continuous
 62
     7
100
AcDbLine
 10
87.93738898793483
 20
-42.78357377613702
 30
0.0
 11
87.87100448647242
 21
-42.95660170947575
 31
0.0
  0
LINE
  5
19E
330
387
100
AcDbEntity
  8
0
  6
Continuous
 62
     7
100
AcDbLine
 10
87.99598068730347
 20
-42.59963268525917
 30
0.0
 11
87.93738898793483
 21
-42.78357377613702
 31
0.0
  0
LINE
  5
19F
330
387
100
AcDbEntity
  8
0
  6
Continuous
 62
     7
100
AcDbLine
 10
88.04633366636926
 20
-42.40617833961096
 30
0.0
 11
87.99598068730347
 21
-42.59963268525917
 31
0.0
  0
LINE
  5
1A0
330
387
100
AcDbEntity
  8
0
  6
Continuous
 62
     7
100
AcDbLine
 10
88.0880647085555
 20
-42.20468304357472
 30
0.0
 11
88.04633366636926
 21
-42.40617833961096
 31
0.0
  0
LINE
  5
1A1
330
387
100
AcDbEntity
  8
0
  6
Continuous
 62
     7
100
AcDbLine
 10
88.12085621543474
 20
-41.99668029801705
 30
0.0
 11
88.0880647085555
 21
-42.20468304357472
 31
0.0
  0
LINE
  5
1A2
330
387
100
AcDbEntity
  8
0
  6
Continuous
 62
     7
100
AcDbLine
 10
88.144458623839
 20
-41.78375312942717
 30
0.0
 11
88.12085621543474
 21
-41.99668029801705
 31
0.0
  0
LINE
  5
1A3
330
387
100
AcDbEntity
  8
0
  6
Continuous
 62
     7
100
AcDbLine
 10
88.15869230518774
 20
-41.56752204212988
 30
0.0
 11
88.144458623839
 21
-41.78375312942717
 31
0.0
  0
LINE
  5
1A4
330
387
100
AcDbEntity
  8
0
  6
Continuous
 62
     7
100
AcDbLine
 10
88.16344893257383
 20
-41.34963268525917
 30
0.0
 11
88.15869230518774
 21
-41.56752204212988
 31
0.0
  0
LINE
  5
1A5
330
387
100
AcDbEntity
  8
0
  6
Continuous
 62
     7
100
AcDbLine
 10
88.15869230518774
 20
-41.13174332839025
 30
0.0
 11
88.16344893257383
 21
-41.34963268525917
 31
0.0
  0
LINE
  5
1A6
330
387
100
AcDbEntity
  8
0
  6
Continuous
 62
     7
100
AcDbLine
 10
88.144458623839
 20
-40.91551224109298
 30
0.0
 11
88.15869230518774
 21
-41.13174332839025
 31
0.0
  0
LINE
  5
1A7
330
387
100
AcDbEntity
  8
0
  6
Continuous
 62
     7
100
AcDbLine
 10
88.12085621543474
 20
-40.7025850725031
 30
0.0
 11
88.144458623839
 21
-40.91551224109298
 31
0.0
  0
LINE
  5
1A8
330
387
100
AcDbEntity
  8
0
  6
Continuous
 62
     7
100
AcDbLine
 10
88.0880647085555
 20
-40.49458232694543
 30
0.0
 11
88.12085621543474
 21
-40.7025850725031
 31
0.0
  0
LINE
  5
1A9
330
387
100
AcDbEntity
  8
0
  6
Continuous
 62
     7
100
AcDbLine
 10
88.04633366636926
 20
-40.29308703090737
 30
0.0
 11
88.0880647085555
 21
-40.49458232694543
 31
0.0
  0
LINE
  5
1AA
330
387
100
AcDbEntity
  8
0
  6
Continuous
 62
     7
100
AcDbLine
 10
87.99598068730347
 20
-40.09963268525917
 30
0.0
 11
88.04633366636926
 21
-40.29308703090737
 31
0.0
  0
LINE
  5
1AB
330
387
100
AcDbEntity
  8
0
  6
Continuous
 62
     7
100
AcDbLine
 10
87.93738898793483
 20
-39.91569159438313
 30
0.0
 11
87.99598068730347
 21
-40.09963268525917
 31
0.0
  0
LINE
  5
1AC
330
387
100
AcDbEntity
  8
0
  6
Continuous
 62
     7
100
AcDbLine
 10
87.87100448647242
 20
-39.74266366104439
 30
0.0
 11
87.93738898793483
 21
-39.91569159438313
 31
0.0
  0
LINE
  5
1AD
330
387
100
AcDbEntity
  8
0
  6
Continuous
 62
     7
100
AcDbLine
 10
87.7973324090567
 20
-39.58186573229341
 30
0.0
 11
87.87100448647242
 21
-39.74266366104439
 31
0.0
  0
LINE
  5
1AE
330
387
100
AcDbEntity
  8
0
  6
Continuous
 62
     7
100
AcDbLine
 10
87.71693344468124
 20
-39.43452157746197
 30
0.0
 11
87.7973324090567
 21
-39.58186573229341
 31
0.0
  0
LINE
  5
1AF
330
387
100
AcDbEntity
  8
0
  6
Continuous
 62
     7
100
AcDbLine
 10
87.63041947801182
 20
-39.30175257453721
 30
0.0
 11
87.71693344468124
 21
-39.43452157746197
 31
0.0
  0
LINE
  5
1B0
330
387
100
AcDbEntity
  8
0
  6
Continuous
 62
     7
100
AcDbLine
 10
87.53844893257383
 20
-39.18456917579806
 30
0.0
 11
87.63041947801182
 21
-39.30175257453721
 31
0.0
  0
LINE
  5
1B1
330
387
100
AcDbEntity
  8
0
  6
Continuous
 62
     7
100
AcDbLine
 10
87.44172175974973
 20
-39.08386321766829
 30
0.0
 11
87.53844893257383
 21
-39.18456917579806
 31
0.0
  0
LINE
  5
1B2
330
387
100
AcDbEntity
  8
0
  6
Continuous
 62
     7
100
AcDbLine
 10
87.3409741117307
 20
-39.00040113329578
 30
0.0
 11
87.44172175974973
 21
-39.08386321766829
 31
0.0
  0
LINE
  5
1B3
330
387
100
AcDbEntity
  8
0
  6
Continuous
 62
     7
100
AcDbLine
 10
87.23697273895185
 20
-38.93481811953735
 30
0.0
 11
87.3409741117307
 21
-39.00040113329578
 31
0.0
  0
LINE
  5
1B4
330
387
100
AcDbEntity
  8
0
  6
Continuous
 62
     7
100
AcDbLine
 10
87.13050915465691
 20
-38.88761330272883
 30
0.0
 11
87.23697273895185
 21
-38.93481811953735
 31
0.0
  0
LINE
  5
1B5
330
387
100
AcDbEntity
  8
0
  6
Continuous
 62
     7
100
AcDbLine
 10
87.02239361100827
 20
-38.85914594003134
 30
0.0
 11
87.13050915465691
 21
-38.88761330272883
 31
0.0
  0
LINE
  5
1B6
330
387
100
AcDbEntity
  8
0
  6
Continuous
 62
     7
100
AcDbLine
 10
-124.0865510674262
 20
22.65036774345754
 30
0.0
 11
-36.44851102744315
 21
22.65036774345754
 31
0.0
  0
LINE
  5
1B7
330
387
100
AcDbEntity
  8
0
  6
Continuous
 62
     7
100
AcDbLine
 10
-124.0865510674262
 20
25.65036774345754
 30
0.0
 11
-36.44851102744315
 21
25.65036774345754
 31
0.0
  0
LINE
  5
1B8
330
387
100
AcDbEntity
  8
0
  6
Continuous
 62
     7
100
AcDbLine
 10
-124.0865510674271
 20
25.65036774345754
 30
0.0
 11
-124.0865510674262
 21
22.65036774345754
 31
0.0
  0
ARC
  5
1B9
330
387
100
AcDbEntity
  8
0
  6
Continuous
 62
     7
100
AcDbCircle
 10
-36.44851102744315
 20
29.65036774345754
 30
0.0
 40
6.999999999999997
100
AcDbArc
 50
269.9999938590623
 51
329.9999938590624
  0
ARC
  5
1BA
330
387
100
AcDbEntity
  8
0
  6
Continuous
 62
     7
100
AcDbCircle
 10
-36.44851102744315
 20
29.65036774345754
 30
0.0
 40
3.999999999999998
100
AcDbArc
 50
269.9999938590628
 51
329.9999938590617
  0
LINE
  5
1BB
330
387
100
AcDbEntity
  8
0
  6
Continuous
 62
     7
100
AcDbLine
 10
-32.98440962666473
 20
27.65036737217633
 30
0.0
 11
-18.83932781715657
 21
52.15036774345754
 31
0.0
  0
LINE
  5
1BC
330
387
100
AcDbEntity
  8
0
  6
Continuous
 62
     7
100
AcDbLine
 10
-30.38633320095187
 20
26.15036774345754
 30
0.0
 11
-16.24125160580661
 21
50.65036774345753
 31
0.0
  0
LINE
  5
1BD
330
387
100
AcDbEntity
  8
0
  6
Continuous
 62
     7
100
AcDbLine
 10
88.31537272121977
 20
71.93497743428451
 30
0.0
 11
80.51943413754997
 21
58.43201571467897
 31
0.0
  0
LINE
  5
1BE
330
387
100
AcDbEntity
  8
0
  6
Continuous
 62
     7
100
AcDbLine
 10
90.91344893257385
 20
70.43497743428452
 30
0.0
 11
88.31537272121977
 21
71.93497743428451
 31
0.0
  0
LINE
  5
1BF
330
387
100
AcDbEntity
  8
0
  6
Continuous
 62
     7
100
AcDbLine
 10
90.91344893257385
 20
70.43497743428452
 30
0.0
 11
82.66355890736669
 21
56.14574875377048
 31
0.0
  0
ARC
  5
1C0
330
387
100
AcDbEntity
  8
0
  6
Continuous
 62
     7
100
AcDbCircle
 10
-12.77714999066575
 20
48.65036774345753
 30
0.0
 40
7.0
100
AcDbArc
 50
90.00000000000003
 51
149.9999999999958
  0
ARC
  5
1C1
330
387
100
AcDbEntity
  8
0
  6
Continuous
 62
     7
100
AcDbCircle
 10
-12.77714999066893
 20
48.65036774345753
 30
0.0
 40
4.0
100
AcDbArc
 50
90.0
 51
149.9999999999995
  0
LINE
  5
1C2
330
387
100
AcDbEntity
  8
0
  6
Continuous
 62
     7
100
AcDbLine
 10
59.10577924950711
 20
-34.84963268525917
 30
0.0
 11
67.11701251018666
 21
-34.84963268525917
 31
0.0
  0
LINE
  5
1C3
330
387
100
AcDbEntity
  8
0
  6
Continuous
 62
     7
100
AcDbLine
 10
78.70968260814106
 20
-34.84963268525917
 30
0.0
 11
87.57713845911894
 21
-34.84963268525917
 31
0.0
  0
LINE
  5
1C4
330
387
100
AcDbEntity
  8
0
  6
Continuous
 62
     7
100
AcDbLine
 10
-120.7502405939708
 20
-34.84963268526099
 30
0.0
 11
3.11706319689165
 21
-34.84963268526008
 31
0.0
  0
LINE
  5
1C5
330
387
100
AcDbEntity
  8
0
  6
Continuous
 62
     7
100
AcDbLine
 10
14.70973329484605
 20
-34.84963268525917
 30
0.0
 11
37.72111861563825
 21
-34.84963268525917
 31
0.0
  0
LINE
  5
1C6
330
387
100
AcDbEntity
  8
LAYER0005
  6
CENTER
 62
     4
100
AcDbLine
 10
-116.0865510674262
 20
-36.84963268526099
 30
0.0
 11
-116.0865510674262
 21
-45.84963268526099
 31
0.0
  0
LINE
  5
1C7
330
387
100
AcDbEntity
  8
LAYER0005
  6
CENTER
 62
     4
100
AcDbLine
 10
-24.08655106742617
 20
-37.63530815823378
 30
0.0
 11
-24.08655106742617
 21
-45.82949058496614
 31
0.0
  0
LINE
  5
1C8
330
387
100
AcDbEntity
  8
LAYER0005
  6
CENTER
 62
     4
100
AcDbLine
 10
86.91344893257383
 20
-36.84963268526099
 30
0.0
 11
86.91344893257383
 21
-45.84963268525917
 31
0.0
  0
LINE
  5
1C9
330
387
100
AcDbEntity
  8
LAYER0005
  6
CENTER
 62
     4
100
AcDbLine
 10
-116.0865510674262
 20
27.72554844961451
 30
0.0
 11
-116.0865510674262
 21
19.95547512777921
 31
0.0
  0
LINE
  5
1CA
330
387
100
AcDbEntity
  8
LAYER0005
  6
CENTER
 62
     4
100
AcDbLine
 10
82.41370261177099
 20
66.10470395360971
 30
0.0
 11
89.32268497986797
 21
62.11580112356205
 31
0.0
  0
LINE
  5
1CB
330
387
100
AcDbEntity
  8
LAYER0005
  6
CENTER
 62
     4
100
AcDbLine
 10
-19.80711652541459
 20
54.15036774345754
 30
0.0
 11
84.91344870907369
 21
54.15036774345754
 31
0.0
  0
ARC
  5
1CC
330
387
100
AcDbEntity
  8
0
  6
Continuous
 62
     7
100
AcDbCircle
 10
48.41344893257292
 20
-30.34963284926653
 30
0.0
 40
12.0
100
AcDbArc
 50
337.2021872238012
 51
202.7978127761988
  0
ARC
  5
1CD
330
387
100
AcDbEntity
  8
0
  6
Continuous
 62
     7
100
AcDbCircle
 10
44.66344893257292
 20
56.65036774345754
 30
0.0
 40
1.0
100
AcDbArc
 50
180.0
 51
270.0
  0
ARC
  5
1CE
330
387
100
AcDbEntity
  8
0
  6
Continuous
 62
     7
100
AcDbCircle
 10
52.16344893257292
 20
56.65036774345754
 30
0.0
 40
1.0
100
AcDbArc
 50
270.0
 51
0.0
  0
LINE
  5
1CF
330
387
100
AcDbEntity
  8
0
  6
Continuous
 62
     7
100
AcDbLine
 10
36.41344893257293
 20
56.65036774345754
 30
0.0
 11
60.41344893257292
 21
56.65036774345754
 31
0.0
  0
LINE
  5
1D0
330
387
100
AcDbEntity
  8
0
  6
Continuous
 62
     7
100
AcDbLine
 10
60.41344893257292
 20
56.65036774345754
 30
0.0
 11
60.41344893257292
 21
63.65036774345753
 31
0.0
  0
LINE
  5
1D1
330
387
100
AcDbEntity
  8
0
  6
Continuous
 62
     7
100
AcDbLine
 10
60.41344893257292
 20
63.65036774345753
 30
0.0
 11
36.41344893257293
 21
63.65036774345753
 31
0.0
  0
LINE
  5
1D2
330
387
100
AcDbEntity
  8
0
  6
Continuous
 62
     7
100
AcDbLine
 10
36.41344893257293
 20
63.65036774345753
 30
0.0
 11
36.41344893257293
 21
56.65036774345754
 31
0.0
  0
LINE
  5
1D3
330
387
100
AcDbEntity
  8
0
  6
Continuous
 62
     7
100
AcDbLine
 10
62.9134491560735
 20
55.65036774345753
 30
0.0
 11
18.91344870907369
 21
55.65036774345753
 31
0.0
  0
LINE
  5
1D4
330
387
100
AcDbEntity
  8
0
  6
Continuous
 62
     7
100
AcDbLine
 10
-1.086550843926489
 20
55.65036774345753
 30
0.0
 11
-12.77714999066575
 21
55.65036774345753
 31
0.0
  0
LINE
  5
1D5
330
387
100
AcDbEntity
  8
0
  6
Continuous
 62
     7
100
AcDbLine
 10
62.9134491560735
 20
52.65036774345754
 30
0.0
 11
18.91344870907369
 21
52.65036774345754
 31
0.0
  0
LINE
  5
1D6
330
387
100
AcDbEntity
  8
0
  6
Continuous
 62
     7
100
AcDbLine
 10
-1.086550843926489
 20
52.65036774345754
 30
0.0
 11
-12.77714999066893
 21
52.65036774345754
 31
0.0
  0
LINE
  5
1D7
330
387
100
AcDbEntity
  8
0
  6
Continuous
 62
     7
100
AcDbLine
 10
-32.40705914311548
 20
-34.84963268526008
 30
0.0
 11
-32.40705914311548
 21
-47.84963268526007
 31
0.0
  0
LINE
  5
1D8
330
387
100
AcDbEntity
  8
0
  6
Continuous
 62
     7
100
AcDbLine
 10
-15.08655106742617
 20
-34.84963268526008
 30
0.0
 11
-15.08655106742617
 21
-47.84963268526007
 31
0.0
  0
LINE
  5
1D9
330
387
100
AcDbEntity
  8
0
  6
Continuous
 62
     7
100
AcDbLine
 10
80.64549974014154
 20
-34.84963268525917
 30
0.0
 11
80.64549974014154
 21
-47.84963268526099
 31
0.0
  0
LINE
  5
1DA
330
387
100
AcDbEntity
  8
0
  6
Continuous
 62
     7
100
AcDbLine
 10
-113.5865510674262
 20
25.65036774345754
 30
0.0
 11
-113.5865510674262
 21
24.65036774345754
 31
0.0
  0
LINE
  5
1DB
330
387
100
AcDbEntity
  8
0
  6
Continuous
 62
     7
100
AcDbLine
 10
-113.5865510674262
 20
23.65036774345754
 30
0.0
 11
-113.5865510674262
 21
22.65036774345754
 31
0.0
  0
LINE
  5
1DC
330
387
100
AcDbEntity
  8
0
  6
Continuous
 62
     7
100
AcDbLine
 10
-118.5865510674262
 20
25.65036774345754
 30
0.0
 11
-118.5865510674262
 21
24.65036774345754
 31
0.0
  0
LINE
  5
1DD
330
387
100
AcDbEntity
  8
0
  6
Continuous
 62
     7
100
AcDbLine
 10
-118.5865510674262
 20
23.65036774345754
 30
0.0
 11
-118.5865510674262
 21
22.65036774345754
 31
0.0
  0
LINE
  5
1DE
330
387
100
AcDbEntity
  8
0
  6
Continuous
 62
     7
100
AcDbLine
 10
-25.43462727877932
 20
40.72697398479976
 30
0.0
 11
-24.56860187499478
 21
40.22697398479976
 31
0.0
  0
LINE
  5
1DF
330
387
100
AcDbEntity
  8
0
  6
Continuous
 62
     7
100
AcDbLine
 10
-23.70257647121025
 20
39.72697398479977
 30
0.0
 11
-22.83655106742617
 21
39.22697398479977
 31
0.0
  0
LINE
  5
1E0
330
387
100
AcDbEntity
  8
0
  6
Continuous
 62
     7
100
AcDbLine
 10
-27.93462727877932
 20
36.39684696587757
 30
0.0
 11
-27.06860187499478
 21
35.89684696587756
 31
0.0
  0
LINE
  5
1E1
330
387
100
AcDbEntity
  8
0
  6
Continuous
 62
     7
100
AcDbLine
 10
-26.20257647121025
 20
35.39684696587757
 30
0.0
 11
-25.33655106742617
 21
34.89684696587756
 31
0.0
  0
LINE
  5
1E2
330
387
100
AcDbEntity
  8
0
  6
Continuous
 62
     7
100
AcDbLine
 10
85.56537272122069
 20
67.17183771346981
 30
0.0
 11
86.43139812500477
 21
66.67183771346981
 31
0.0
  0
LINE
  5
1E3
330
387
100
AcDbEntity
  8
0
  6
Continuous
 62
     7
100
AcDbLine
 10
87.29742352878975
 20
66.17183771346981
 30
0.0
 11
88.16344893257383
 21
65.67183771346981
 31
0.0
  0
LINE
  5
1E4
330
387
100
AcDbEntity
  8
0
  6
Continuous
 62
     7
100
AcDbLine
 10
83.06537272122069
 20
62.8417106945476
 30
0.0
 11
83.93139812500477
 21
62.3417106945476
 31
0.0
  0
LINE
  5
1E5
330
387
100
AcDbEntity
  8
0
  6
Continuous
 62
     7
100
AcDbLine
 10
84.79742352878975
 20
61.84171069454761
 30
0.0
 11
85.66344893257383
 21
61.34171069454761
 31
0.0
  0
LINE
  5
1E6
330
387
100
AcDbEntity
  8
0
  6
Continuous
 62
     7
100
AcDbLine
 10
13.41324618575391
 20
-25.0496326852608
 30
0.0
 11
4.413246185753906
 21
-25.0496326852608
 31
0.0
  0
LINE
  5
1E7
330
387
100
AcDbEntity
  8
0
  6
Continuous
 62
     7
100
AcDbLine
 10
4.413246185753906
 20
-25.0496326852608
 30
0.0
 11
4.413246185753906
 21
-24.44963268526135
 31
0.0
  0
LINE
  5
1E8
330
387
100
AcDbEntity
  8
0
  6
Continuous
 62
     7
100
AcDbLine
 10
4.413246185753906
 20
-24.44963268526135
 30
0.0
 11
13.41324618575391
 21
-24.44963268526135
 31
0.0
  0
LINE
  5
1E9
330
387
100
AcDbEntity
  8
0
  6
Continuous
 62
     7
100
AcDbLine
 10
13.41324618575391
 20
-24.44963268526135
 30
0.0
 11
13.41324618575391
 21
-25.0496326852608
 31
0.0
  0
LINE
  5
1EA
330
387
100
AcDbEntity
  8
0
  6
Continuous
 62
     7
100
AcDbLine
 10
14.91344893257383
 20
-31.54973405867077
 30
0.0
 11
2.913448932573828
 21
-31.54973405867077
 31
0.0
  0
LINE
  5
1EB
330
387
100
AcDbEntity
  8
0
  6
Continuous
 62
     7
100
AcDbLine
 10
12.06344893257392
 20
-22.4497340586704
 30
0.0
 11
12.06344893257392
 21
-24.4497340586704
 31
0.0
  0
LINE
  5
1EC
330
387
100
AcDbEntity
  8
0
  6
Continuous
 62
     7
100
AcDbLine
 10
5.763448932573736
 20
-24.4497340586704
 30
0.0
 11
5.763448932573736
 21
-22.4497340586704
 31
0.0
  0
LINE
  5
1ED
330
387
100
AcDbEntity
  8
0
  6
Continuous
 62
     7
100
AcDbLine
 10
5.763448932573736
 20
-22.4497340586704
 30
0.0
 11
12.06344893257392
 21
-22.4497340586704
 31
0.0
  0
LINE
  5
1EE
330
387
100
AcDbEntity
  8
0
  6
Continuous
 62
     7
100
AcDbLine
 10
14.91344893257383
 20
-31.54973405867077
 30
0.0
 11
14.91344893257383
 21
-34.74973405867149
 31
0.0
  0
LINE
  5
1EF
330
387
100
AcDbEntity
  8
0
  6
Continuous
 62
     7
100
AcDbLine
 10
2.913448932573828
 20
-31.54973405867077
 30
0.0
 11
2.913448932573828
 21
-34.74973405867149
 31
0.0
  0
LINE
  5
1F0
330
387
100
AcDbEntity
  8
0
  6
Continuous
 62
     7
100
AcDbLine
 10
3.61706319689165
 20
-45.84973405867003
 30
0.0
 11
14.20973329484605
 21
-45.84973405867003
 31
0.0
  0
LINE
  5
1F1
330
387
100
AcDbEntity
  8
0
  6
Continuous
 62
     7
100
AcDbLine
 10
14.73128553938295
 20
-34.74973405867149
 30
0.0
 11
14.91344893257383
 21
-34.74973405867149
 31
0.0
  0
LINE
  5
1F2
330
387
100
AcDbEntity
  8
0
  6
Continuous
 62
     7
100
AcDbLine
 10
14.70973329484605
 20
-34.74973405867058
 30
0.0
 11
14.70973329484605
 21
-45.34973405867003
 31
0.0
  0
LINE
  5
1F3
330
387
100
AcDbEntity
  8
0
  6
Continuous
 62
     7
100
AcDbLine
 10
3.095510952354743
 20
-34.74973405867149
 30
0.0
 11
2.91355030598379
 21
-34.74973405867149
 31
0.0
  0
LINE
  5
1F4
330
387
100
AcDbEntity
  8
0
  6
Continuous
 62
     7
100
AcDbLine
 10
3.11706319689165
 20
-34.74973405867058
 30
0.0
 11
3.11706319689165
 21
-45.34973405867003
 31
0.0
  0
LINE
  5
1F5
330
387
100
AcDbEntity
  8
0
  6
Continuous
 62
     7
100
AcDbLine
 10
14.70973329484605
 20
-45.34973405867003
 30
0.0
 11
14.20973329484605
 21
-45.84973405867003
 31
0.0
  0
LINE
  5
1F6
330
387
100
AcDbEntity
  8
0
  6
Continuous
 62
     7
100
AcDbLine
 10
3.61706319689165
 20
-45.84973405867003
 30
0.0
 11
3.11706319689165
 21
-45.34973405867003
 31
0.0
  0
CIRCLE
  5
1F7
330
387
100
AcDbEntity
  8
0
  6
Continuous
 62
     7
100
AcDbCircle
 10
8.913296872458886
 20
-7.449632849462433
 30
0.0
 40
3.6
  0
LINE
  5
1F8
330
387
100
AcDbEntity
  8
0
  6
Continuous
 62
     7
100
AcDbLine
 10
77.41319549904893
 20
-25.04963268525898
 30
0.0
 11
68.41319549904892
 21
-25.04963268525898
 31
0.0
  0
LINE
  5
1F9
330
387
100
AcDbEntity
  8
0
  6
Continuous
 62
     7
100
AcDbLine
 10
68.41319549904892
 20
-25.04963268525898
 30
0.0
 11
68.41319549904892
 21
-24.44963268525953
 31
0.0
  0
LINE
  5
1FA
330
387
100
AcDbEntity
  8
0
  6
Continuous
 62
     7
100
AcDbLine
 10
68.41319549904892
 20
-24.44963268525953
 30
0.0
 11
77.41319549904893
 21
-24.44963268525953
 31
0.0
  0
LINE
  5
1FB
330
387
100
AcDbEntity
  8
0
  6
Continuous
 62
     7
100
AcDbLine
 10
77.41319549904893
 20
-24.44963268525953
 30
0.0
 11
77.41319549904893
 21
-25.04963268525898
 31
0.0
  0
LINE
  5
1FC
330
387
100
AcDbEntity
  8
0
  6
Continuous
 62
     7
100
AcDbLine
 10
78.91339824586885
 20
-31.54973405866895
 30
0.0
 11
66.91339824586885
 21
-31.54973405866895
 31
0.0
  0
LINE
  5
1FD
330
387
100
AcDbEntity
  8
0
  6
Continuous
 62
     7
100
AcDbLine
 10
76.06339824586894
 20
-22.44973405866858
 30
0.0
 11
76.06339824586894
 21
-24.44973405866858
 31
0.0
  0
LINE
  5
1FE
330
387
100
AcDbEntity
  8
0
  6
Continuous
 62
     7
100
AcDbLine
 10
76.06339824586894
 20
-26.64963268526026
 30
0.0
 11
76.06339824586894
 21
-26.94973405866949
 31
0.0
  0
LINE
  5
1FF
330
387
100
AcDbEntity
  8
0
  6
Continuous
 62
     7
100
AcDbLine
 10
69.76339824586876
 20
-26.94973405866949
 30
0.0
 11
69.76339824586876
 21
-26.64963268526026
 31
0.0
  0
LINE
  5
200
330
387
100
AcDbEntity
  8
0
  6
Continuous
 62
     7
100
AcDbLine
 10
69.76339824586876
 20
-24.44973405866858
 30
0.0
 11
69.76339824586876
 21
-22.44973405866858
 31
0.0
  0
LINE
  5
201
330
387
100
AcDbEntity
  8
0
  6
Continuous
 62
     7
100
AcDbLine
 10
69.76339824586876
 20
-22.44973405866858
 30
0.0
 11
76.06339824586894
 21
-22.44973405866858
 31
0.0
  0
LINE
  5
202
330
387
100
AcDbEntity
  8
0
  6
Continuous
 62
     7
100
AcDbLine
 10
76.06339824586894
 20
-24.44973405866858
 30
0.0
 11
69.76339824586876
 21
-24.44973405866858
 31
0.0
  0
LINE
  5
203
330
387
100
AcDbEntity
  8
0
  6
Continuous
 62
     7
100
AcDbLine
 10
76.31339824586894
 20
-31.54973405866895
 30
0.0
 11
76.31339824586894
 21
-31.44963249146076
 31
0.0
  0
LINE
  5
204
330
387
100
AcDbEntity
  8
0
  6
Continuous
 62
     7
100
AcDbLine
 10
69.51339824586876
 20
-31.54973405866895
 30
0.0
 11
69.51339824586876
 21
-31.44963249146076
 31
0.0
  0
CIRCLE
  5
205
330
387
100
AcDbEntity
  8
0
  6
Continuous
 62
     7
100
AcDbCircle
 10
72.91324618575391
 20
-7.449632849460612
 30
0.0
 40
3.6
  0
LINE
  5
206
330
387
100
AcDbEntity
  8
0
  6
Continuous
 62
     7
100
AcDbLine
 10
78.91339824586885
 20
-31.54973405866895
 30
0.0
 11
78.91339824586885
 21
-34.74973405866967
 31
0.0
  0
LINE
  5
207
330
387
100
AcDbEntity
  8
0
  6
Continuous
 62
     7
100
AcDbLine
 10
66.91339824586885
 20
-31.54973405866895
 30
0.0
 11
66.91339824586885
 21
-34.74973405866967
 31
0.0
  0
LINE
  5
208
330
387
100
AcDbEntity
  8
0
  6
Continuous
 62
     7
100
AcDbLine
 10
67.61701251018667
 20
-45.84973405866822
 30
0.0
 11
78.20968260814106
 21
-45.84973405866822
 31
0.0
  0
LINE
  5
209
330
387
100
AcDbEntity
  8
0
  6
Continuous
 62
     7
100
AcDbLine
 10
78.73123485267797
 20
-34.74973405866967
 30
0.0
 11
78.91339824586885
 21
-34.74973405866967
 31
0.0
  0
LINE
  5
20A
330
387
100
AcDbEntity
  8
0
  6
Continuous
 62
     7
100
AcDbLine
 10
78.70968260814106
 20
-34.74973405866876
 30
0.0
 11
78.70968260814106
 21
-45.34973405866822
 31
0.0
  0
LINE
  5
20B
330
387
100
AcDbEntity
  8
0
  6
Continuous
 62
     7
100
AcDbLine
 10
67.09546026564976
 20
-34.74973405866967
 30
0.0
 11
66.91349961927881
 21
-34.74973405866967
 31
0.0
  0
LINE
  5
20C
330
387
100
AcDbEntity
  8
0
  6
Continuous
 62
     7
100
AcDbLine
 10
67.11701251018666
 20
-34.74973405866876
 30
0.0
 11
67.11701251018666
 21
-45.34973405866822
 31
0.0
  0
LINE
  5
20D
330
387
100
AcDbEntity
  8
0
  6
Continuous
 62
     7
100
AcDbLine
 10
78.70968260814106
 20
-45.34973405866822
 30
0.0
 11
78.20968260814106
 21
-45.84973405866822
 31
0.0
  0
LINE
  5
20E
330
387
100
AcDbEntity
  8
0
  6
Continuous
 62
     7
100
AcDbLine
 10
67.61701251018667
 20
-45.84973405866822
 30
0.0
 11
67.11701251018666
 21
-45.34973405866822
 31
0.0
  0
LINE
  5
20F
330
387
100
AcDbEntity
  8
0
  6
Continuous
 62
     7
100
AcDbLine
 10
15.41344893257337
 20
49.65036774345754
 30
0.0
 11
66.41344893257382
 21
49.65036774345754
 31
0.0
  0
LINE
  5
210
330
387
100
AcDbEntity
  8
0
  6
Continuous
 62
     7
100
AcDbLine
 10
18.91344870907369
 20
52.65036774345754
 30
0.0
 11
62.9134491560735
 21
52.65036774345754
 31
0.0
  0
LINE
  5
211
330
387
100
AcDbEntity
  8
0
  6
Continuous
 62
     7
100
AcDbLine
 10
57.41344893257382
 20
49.65036774345754
 30
0.0
 11
57.41344893257382
 21
52.65036774345754
 31
0.0
  0
LINE
  5
212
330
387
100
AcDbEntity
  8
0
  6
Continuous
 62
     7
100
AcDbLine
 10
39.41344893257383
 20
52.65036774345754
 30
0.0
 11
39.41344893257383
 21
49.65036774345754
 31
0.0
  0
LINE
  5
213
330
387
100
AcDbEntity
  8
0
  6
Continuous
 62
     7
100
AcDbLine
 10
-23.08655106742572
 20
61.35772700651614
 30
0.0
 11
-23.08655106742572
 21
46.65036774345753
 31
0.0
  0
LINE
  5
214
330
387
100
AcDbEntity
  8
0
  6
Continuous
 62
     7
100
AcDbLine
 10
-26.08655106742572
 20
46.65036774345753
 30
0.0
 11
-23.08655106742572
 21
46.65036774345753
 31
0.0
  0
LINE
  5
215
330
387
100
AcDbEntity
  8
0
  6
Continuous
 62
     7
100
AcDbLine
 10
-19.67233750505284
 20
62.76458130583161
 30
0.0
 11
-14.02259003674635
 21
57.11483383752465
 31
0.0
  0
LINE
  5
216
330
387
100
AcDbEntity
  8
0
  6
Continuous
 62
     7
100
AcDbLine
 10
-10.48705613081393
 20
58.65036774345753
 30
0.0
 11
0.9134489325742833
 21
58.65036774345753
 31
0.0
  0
LINE
  5
217
330
387
100
AcDbEntity
  8
0
  6
Continuous
 62
     7
100
AcDbLine
 10
-10.48705613081393
 20
55.65036774345753
 30
0.0
 11
-1.086550843926489
 21
55.65036774345753
 31
0.0
  0
ARC
  5
218
330
387
100
AcDbEntity
  8
0
  6
Continuous
 62
     7
100
AcDbCircle
 10
-10.48705613081393
 20
60.65036774345753
 30
0.0
 40
5.0
100
AcDbArc
 50
224.9999999999968
 51
270.0
  0
LINE
  5
219
330
387
100
AcDbEntity
  8
0
  6
Continuous
 62
     7
100
AcDbLine
 10
-30.08655106742572
 20
59.35036774345826
 30
0.0
 11
-29.08655106742572
 21
59.35036774345826
 31
0.0
  0
LINE
  5
21A
330
387
100
AcDbEntity
  8
0
  6
Continuous
 62
     7
100
AcDbLine
 10
-29.08655106742572
 20
47.35036774345826
 30
0.0
 11
-30.08655106742572
 21
47.35036774345826
 31
0.0
  0
LINE
  5
21B
330
387
100
AcDbEntity
  8
0
  6
Continuous
 62
     7
100
AcDbLine
 10
-30.08655106742572
 20
47.35036774345826
 30
0.0
 11
-30.08655106742572
 21
59.35036774345826
 31
0.0
  0
LINE
  5
21C
330
387
100
AcDbEntity
  8
0
  6
Continuous
 62
     7
100
AcDbLine
 10
-29.08655106742572
 20
59.35036774345826
 30
0.0
 11
-29.08655106742572
 21
47.35036774345826
 31
0.0
  0
LINE
  5
21D
330
387
100
AcDbEntity
  8
0
  6
Continuous
 62
     7
100
AcDbLine
 10
-2.286551067425989
 20
58.65036774345753
 30
0.0
 11
-7.886551067425442
 21
58.65036774345753
 31
0.0
  0
LINE
  5
21E
330
387
100
AcDbEntity
  8
0
  6
Continuous
 62
     7
100
AcDbLine
 10
-2.350678707306087
 20
59.87399600547361
 30
0.0
 11
-2.286551067425989
 21
58.65036774345753
 31
0.0
  0
LINE
  5
21F
330
387
100
AcDbEntity
  8
0
  6
Continuous
 62
     7
100
AcDbLine
 10
-7.822423427545344
 20
59.87399600547361
 30
0.0
 11
-7.886551067425442
 21
58.65036774345753
 31
0.0
  0
ARC
  5
220
330
387
100
AcDbEntity
  8
0
  6
Continuous
 62
     7
100
AcDbCircle
 10
-3.049719381634076
 20
59.83736083610347
 30
0.0
 40
0.7
100
AcDbArc
 50
3.000000000000003
 51
61.72644401143408
  0
ARC
  5
221
330
387
100
AcDbEntity
  8
0
  6
Continuous
 62
     7
100
AcDbCircle
 10
-7.123382753217356
 20
59.83736083610347
 30
0.0
 40
0.7
100
AcDbArc
 50
118.2735559885659
 51
177.0
  0
ARC
  5
222
330
387
100
AcDbEntity
  8
0
  6
Continuous
 62
     7
100
AcDbCircle
 10
-5.086551067425261
 20
56.05036774345717
 30
0.0
 40
5.0
100
AcDbArc
 50
61.72644401143408
 51
118.2735559885659
  0
LINE
  5
223
330
387
100
AcDbEntity
  8
0
  6
Continuous
 62
     7
100
AcDbLine
 10
-3.586551067425261
 20
50.65036774345753
 30
0.0
 11
-6.586551067425262
 21
50.65036774345753
 31
0.0
  0
LINE
  5
224
330
387
100
AcDbEntity
  8
0
  6
Continuous
 62
     7
100
AcDbLine
 10
-3.586551067425261
 20
52.65036774345754
 30
0.0
 11
-3.586551067425261
 21
50.65036774345753
 31
0.0
  0
LINE
  5
225
330
387
100
AcDbEntity
  8
0
  6
Continuous
 62
     7
100
AcDbLine
 10
-6.586551067425262
 20
52.65036774345754
 30
0.0
 11
-6.586551067425262
 21
50.65036774345753
 31
0.0
  0
LINE
  5
226
330
387
100
AcDbEntity
  8
0
  6
Continuous
 62
     7
100
AcDbLine
 10
45.41344893257291
 20
47.65036774345754
 30
0.0
 11
51.41344893257292
 21
47.65036774345754
 31
0.0
  0
LINE
  5
227
330
387
100
AcDbEntity
  8
0
  6
Continuous
 62
     7
100
AcDbLine
 10
188.9442618160562
 20
-129.8750821827745
 30
0.0
 11
75.69342781308545
 21
-129.8750821827745
 31
0.0
  0
LINE
  5
228
330
387
100
AcDbEntity
  8
0
  6
Continuous
 62
     7
100
AcDbLine
 10
75.69342781308545
 20
-122.3750821827745
 30
0.0
 11
188.9442618160562
 21
-122.3750821827745
 31
0.0
  0
LINE
  5
229
330
387
100
AcDbEntity
  8
0
  6
Continuous
 62
     7
100
AcDbLine
 10
188.9442618160562
 20
-117.3750821827745
 30
0.0
 11
75.69342781308545
 21
-117.3750821827745
 31
0.0
  0
LINE
  5
22A
330
387
100
AcDbEntity
  8
0
  6
Continuous
 62
     7
100
AcDbLine
 10
188.9442618160562
 20
-117.3750821827745
 30
0.0
 11
188.9442618160562
 21
-129.8750821827745
 31
0.0
  0
LINE
  5
22B
330
387
100
AcDbEntity
  8
0
  6
Continuous
 62
     7
100
AcDbLine
 10
165.9442618160562
 20
-129.8750821827745
 30
0.0
 11
165.9442618160562
 21
-117.3750821827745
 31
0.0
  0
LINE
  5
22C
330
387
100
AcDbEntity
  8
0
  6
Continuous
 62
     7
100
AcDbLine
 10
111.6934278130855
 20
-117.3750821827745
 30
0.0
 11
111.6934278130855
 21
-129.8750821827745
 31
0.0
  0
LINE
  5
22D
330
387
100
AcDbEntity
  8
0
  6
Continuous
 62
     7
100
AcDbLine
 10
90.69342781308547
 20
-129.8750821827745
 30
0.0
 11
90.69342781308547
 21
-117.3750821827745
 31
0.0
  0
LINE
  5
22E
330
387
100
AcDbEntity
  8
0
  6
Continuous
 62
     7
100
AcDbLine
 10
75.69342781308545
 20
-117.3750821827745
 30
0.0
 11
75.69342781308545
 21
-129.8750821827745
 31
0.0
  0
LINE
  5
22F
330
387
100
AcDbEntity
  8
0
  6
DASHED2
 62
     7
100
AcDbLine
 10
0.9134489325742833
 20
-34.84963268525917
 30
0.0
 11
-26.08655106742572
 21
-34.84963268525917
 31
0.0
  0
LINE
  5
230
330
387
100
AcDbEntity
  8
0
  6
DASHED2
 62
     7
100
AcDbLine
 10
-26.08655106742572
 20
-47.84963268525917
 30
0.0
 11
0.9134489325742833
 21
-47.84963268525917
 31
0.0
  0
LINE
  5
231
330
387
100
AcDbEntity
  8
0
  6
CENTER
 62
     4
100
AcDbLine
 10
72.91344893257383
 20
41.45036810205692
 30
0.0
 11
72.91344893257383
 21
66.45036867485669
 31
0.0
  0
LINE
  5
232
330
387
100
AcDbEntity
  8
0
  6
CENTER
 62
     4
100
AcDbLine
 10
-22.3545002598571
 20
36.06191047533866
 30
0.0
 11
-28.41667808634838
 21
39.56191047533866
 31
0.0
  0
LINE
  5
233
330
387
100
AcDbEntity
  8
0
  6
CENTER
 62
     4
100
AcDbLine
 10
8.913448932573828
 20
41.45036810205692
 30
0.0
 11
8.913448932573828
 21
66.45036867485669
 31
0.0
  0
LINE
  5
234
330
387
100
AcDbEntity
  8
0
  6
CENTER
 62
     4
100
AcDbLine
 10
8.913296872458886
 20
-47.84963268526189
 30
0.0
 11
8.913296872458886
 21
0.5503671505375678
 31
0.0
  0
LINE
  5
235
330
387
100
AcDbEntity
  8
0
  6
CENTER
 62
     4
100
AcDbLine
 10
72.91324618575391
 20
-47.84963268526007
 30
0.0
 11
72.91324618575391
 21
0.5503671505393868
 31
0.0
  0
LINE
  5
236
330
387
100
AcDbEntity
  8
0
  6
Continuous
 62
     4
100
AcDbLine
 10
-6.316051067425632
 20
52.65036774345754
 30
0.0
 11
-6.316051067425632
 21
50.65036774345753
 31
0.0
  0
LINE
  5
237
330
387
100
AcDbEntity
  8
0
  6
Continuous
 62
     4
100
AcDbLine
 10
-3.857051067425799
 20
52.65036774345754
 30
0.0
 11
-3.857051067425799
 21
50.65036774345753
 31
0.0
  0
LINE
  5
238
330
387
100
AcDbEntity
  8
LAYER0003
  6
Continuous
 62
     7
100
AcDbLine
 10
16.96647935699775
 20
48.63848696642071
 30
0.0
 11
16.91344893257383
 21
49.65036774345754
 31
0.0
  0
LINE
  5
239
330
387
100
AcDbEntity
  8
LAYER0003
  6
Continuous
 62
     7
100
AcDbLine
 10
23.86041850814991
 20
48.63848696642071
 30
0.0
 11
23.91344893257383
 21
49.65036774345754
 31
0.0
  0
ARC
  5
23A
330
387
100
AcDbEntity
  8
LAYER0003
  6
Continuous
 62
     7
100
AcDbCircle
 10
17.96510889175215
 20
48.69082292266376
 30
0.0
 40
1.0
100
AcDbArc
 50
183.0
 51
240.6812369478796
  0
ARC
  5
23B
330
387
100
AcDbEntity
  8
LAYER0003
  6
Continuous
 62
     7
100
AcDbCircle
 10
22.86178897339551
 20
48.69082292266376
 30
0.0
 40
1.0
100
AcDbArc
 50
299.3187630521203
 51
356.9999999999998
  0
ARC
  5
23C
330
387
100
AcDbEntity
  8
LAYER0003
  6
Continuous
 62
     7
100
AcDbCircle
 10
20.41344893257383
 20
53.05036774345717
 30
0.0
 40
6.0
100
AcDbArc
 50
240.6812369478796
 51
299.3187630521203
  0
LINE
  5
23D
330
387
100
AcDbEntity
  8
LAYER0003
  6
Continuous
 62
     7
100
AcDbLine
 10
22.41344893257383
 20
55.65036774345753
 30
0.0
 11
22.41344893257383
 21
57.65036774345754
 31
0.0
  0
LINE
  5
23E
330
387
100
AcDbEntity
  8
LAYER0003
  6
Continuous
 62
     7
100
AcDbLine
 10
18.41344893257383
 20
57.65036774345754
 30
0.0
 11
22.41344893257383
 21
57.65036774345754
 31
0.0
  0
LINE
  5
23F
330
387
100
AcDbEntity
  8
LAYER0003
  6
Continuous
 62
     7
100
AcDbLine
 10
64.86041850814991
 20
48.63848696642071
 30
0.0
 11
64.91344893257383
 21
49.65036774345754
 31
0.0
  0
LINE
  5
240
330
387
100
AcDbEntity
  8
LAYER0003
  6
Continuous
 62
     7
100
AcDbLine
 10
57.96647935699774
 20
48.63848696642071
 30
0.0
 11
57.91344893257382
 21
49.65036774345754
 31
0.0
  0
ARC
  5
241
330
387
100
AcDbEntity
  8
LAYER0003
  6
Continuous
 62
     7
100
AcDbCircle
 10
63.86178897339551
 20
48.69082292266376
 30
0.0
 40
1.0
100
AcDbArc
 50
299.3187630521203
 51
356.9999999999998
  0
ARC
  5
242
330
387
100
AcDbEntity
  8
LAYER0003
  6
Continuous
 62
     7
100
AcDbCircle
 10
58.96510889175214
 20
48.69082292266376
 30
0.0
 40
1.0
100
AcDbArc
 50
183.0
 51
240.6812369478796
  0
ARC
  5
243
330
387
100
AcDbEntity
  8
LAYER0003
  6
Continuous
 62
     7
100
AcDbCircle
 10
61.41344893257382
 20
53.05036774345717
 30
0.0
 40
6.0
100
AcDbArc
 50
240.6812369478796
 51
299.3187630521203
  0
LINE
  5
244
330
387
100
AcDbEntity
  8
LAYER0003
  6
Continuous
 62
     7
100
AcDbLine
 10
59.41344893257382
 20
55.65036774345753
 30
0.0
 11
59.41344893257382
 21
56.65036774345754
 31
0.0
  0
LINE
  5
245
330
387
100
AcDbEntity
  8
LAYER0003
  6
Continuous
 62
     7
100
AcDbLine
 10
63.41344893257382
 20
57.65036774345754
 30
0.0
 11
60.41344893257292
 21
57.65036774345754
 31
0.0
  0
LINE
  5
246
330
387
100
AcDbEntity
  8
LAYER0003
  6
Continuous
 62
     7
100
AcDbLine
 10
63.41344893257382
 20
56.48180689276522
 30
0.0
 11
63.41344893257382
 21
57.65036774345754
 31
0.0
  0
CIRCLE
  5
247
330
387
100
AcDbEntity
  8
LAYER0003
  6
Continuous
 62
     7
100
AcDbCircle
 10
8.913499619278809
 20
-41.34963268526099
 30
0.0
 40
3.6
  0
CIRCLE
  5
248
330
387
100
AcDbEntity
  8
LAYER0003
  6
Continuous
 62
     7
100
AcDbCircle
 10
72.91344893257383
 20
-41.34963268525917
 30
0.0
 40
3.6
  0
LINE
  5
249
330
387
100
AcDbEntity
  8
LAYER0003
  6
Continuous
 62
     7
100
AcDbLine
 10
-26.08655106742572
 20
58.35036774345827
 30
0.0
 11
-29.08655106742572
 21
58.35036774345827
 31
0.0
  0
LINE
  5
24A
330
387
100
AcDbEntity
  8
LAYER0003
  6
Continuous
 62
     7
100
AcDbLine
 10
-29.08655106742572
 20
48.35036774345827
 30
0.0
 11
-26.08655106742572
 21
48.35036774345827
 31
0.0
  0
LINE
  5
24B
330
387
100
AcDbEntity
  8
LAYER0003
  6
Continuous
 62
     7
100
AcDbLine
 10
-29.08655106742572
 20
58.35036774345827
 30
0.0
 11
-29.08655106742572
 21
48.35036774345827
 31
0.0
  0
LINE
  5
24C
330
387
100
AcDbEntity
  8
LAYER0003
  6
Continuous
 62
     7
100
AcDbLine
 10
-26.08655106742572
 20
48.35036774345827
 30
0.0
 11
-26.08655106742572
 21
58.35036774345827
 31
0.0
  0
LINE
  5
24D
330
387
100
AcDbEntity
  8
LAYER0003
  6
Continuous
 62
     7
100
AcDbLine
 10
-30.93655106742608
 20
50.60036774345826
 30
0.0
 11
-30.93655106742608
 21
56.10036774345826
 31
0.0
  0
LINE
  5
24E
330
387
100
AcDbEntity
  8
LAYER0003
  6
Continuous
 62
     7
100
AcDbLine
 10
-30.93655106742608
 20
50.60036774345826
 30
0.0
 11
-30.68655106742608
 21
50.60036774345826
 31
0.0
  0
LINE
  5
24F
330
387
100
AcDbEntity
  8
LAYER0003
  6
Continuous
 62
     7
100
AcDbLine
 10
-30.93655106742608
 20
56.10036774345826
 30
0.0
 11
-30.68655106742608
 21
56.10036774345826
 31
0.0
  0
LINE
  5
250
330
387
100
AcDbEntity
  8
LAYER0003
  6
Continuous
 62
     7
100
AcDbLine
 10
-30.68655106742608
 20
50.60036774345826
 30
0.0
 11
-30.68655106742608
 21
56.10036774345826
 31
0.0
  0
LINE
  5
251
330
387
100
AcDbEntity
  8
LAYER0003
  6
Continuous
 62
     7
100
AcDbLine
 10
-30.68655106742608
 20
56.10036774345826
 30
0.0
 11
-30.08655106742572
 21
55.50036774345882
 31
0.0
  0
LINE
  5
252
330
387
100
AcDbEntity
  8
LAYER0003
  6
Continuous
 62
     7
100
AcDbLine
 10
-30.68655106742608
 20
50.60036774345826
 30
0.0
 11
-30.08655106742572
 21
51.20036774345863
 31
0.0
  0
LINE
  5
253
330
387
100
AcDbEntity
  8
LAYER0003
  6
Continuous
 62
     7
100
AcDbLine
 10
18.41344893257383
 20
56.48180689276522
 30
0.0
 11
18.41344893257383
 21
57.65036774345754
 31
0.0
  0
LINE
  5
254
330
387
100
AcDbEntity
  8
LAYER0003
  6
Continuous
 62
     7
100
AcDbLine
 10
45.41344893257291
 20
49.65036774345754
 30
0.0
 11
45.41344893257291
 21
47.65036774345754
 31
0.0
  0
LINE
  5
255
330
387
100
AcDbEntity
  8
LAYER0003
  6
Continuous
 62
     7
100
AcDbLine
 10
51.41344893257292
 20
47.65036774345754
 30
0.0
 11
45.41344893257291
 21
47.65036774345754
 31
0.0
  0
LINE
  5
256
330
387
100
AcDbEntity
  8
LAYER0003
  6
Continuous
 62
     7
100
AcDbLine
 10
51.41344893257292
 20
49.65036774345754
 30
0.0
 11
51.41344893257292
 21
47.65036774345754
 31
0.0
  0
LINE
  5
257
330
387
100
AcDbEntity
  8
LAYER0003
  6
Continuous
 62
     7
100
AcDbLine
 10
0.9134489325742833
 20
58.65036774345753
 30
0.0
 11
0.9134489325742833
 21
58.09463965345731
 31
0.0
  0
LINE
  5
258
330
387
100
AcDbEntity
  8
LAYER0003
  6
Continuous
 62
     4
100
AcDbLine
 10
22.03444893257392
 20
55.65036774345753
 30
0.0
 11
22.03444893257392
 21
57.65036774345754
 31
0.0
  0
LINE
  5
259
330
387
100
AcDbEntity
  8
LAYER0003
  6
Continuous
 62
     4
100
AcDbLine
 10
59.79244893257373
 20
55.65036774345753
 30
0.0
 11
59.79244893257373
 21
56.65036774345754
 31
0.0
  0
LINE
  5
25A
330
387
100
AcDbEntity
  8
LAYER0003
  6
Continuous
 62
     4
100
AcDbLine
 10
63.03444893257392
 20
55.96251564261547
 30
0.0
 11
63.03444893257392
 21
57.65036774345754
 31
0.0
  0
LINE
  5
25B
330
387
100
AcDbEntity
  8
LAYER0003
  6
Continuous
 62
     4
100
AcDbLine
 10
57.91344893257382
 20
49.65036774345754
 30
0.0
 11
64.91344893257383
 21
49.65036774345754
 31
0.0
  0
LINE
  5
25C
330
387
100
AcDbEntity
  8
LAYER0003
  6
Continuous
 62
     4
100
AcDbLine
 10
18.79244893257373
 20
55.96251564261547
 30
0.0
 11
18.79244893257373
 21
57.65036774345754
 31
0.0
  0
LINE
  5
25D
330
387
100
AcDbEntity
  8
LAYER0003
  6
Continuous
 62
     4
100
AcDbLine
 10
45.95494893257319
 20
49.65036774345754
 30
0.0
 11
45.95494893257319
 21
47.65036774345754
 31
0.0
  0
LINE
  5
25E
330
387
100
AcDbEntity
  8
LAYER0003
  6
Continuous
 62
     4
100
AcDbLine
 10
50.87194893257265
 20
49.65036774345754
 30
0.0
 11
50.87194893257265
 21
47.65036774345754
 31
0.0
  0
LINE
  5
25F
330
387
100
AcDbEntity
  8
ZUWAKU
  6
Continuous
 62
     7
100
AcDbLine
 10
-0.0867029040409761
 20
-31.44963249146258
 30
0.0
 11
17.9132966489592
 21
-31.44963249146258
 31
0.0
  0
LINE
  5
260
330
387
100
AcDbEntity
  8
ZUWAKU
  6
Continuous
 62
     7
100
AcDbLine
 10
-1.086702904040975
 20
-8.026977857293926
 30
0.0
 11
-1.086702904040975
 21
-30.44963249146258
 31
0.0
  0
LINE
  5
261
330
387
100
AcDbEntity
  8
ZUWAKU
  6
Continuous
 62
     7
100
AcDbLine
 10
18.9132966489592
 20
-8.026977857293184
 30
0.0
 11
18.9132966489592
 21
-30.44963249146258
 31
0.0
  0
LINE
  5
262
330
387
100
AcDbEntity
  8
ZUWAKU
  6
Continuous
 62
     7
100
AcDbLine
 10
13.41410730488906
 20
-26.94963268526226
 30
0.0
 11
4.412385066618753
 21
-26.94963268526226
 31
0.0
  0
LINE
  5
263
330
387
100
AcDbEntity
  8
ZUWAKU
  6
Continuous
 62
     7
100
AcDbLine
 10
18.4132954218626
 20
-7.160951745045352
 30
0.0
 11
14.28558005561035
 21
-4.77782196543194
 31
0.0
  0
LINE
  5
264
330
387
100
AcDbEntity
  8
ZUWAKU
  6
Continuous
 62
     7
100
AcDbLine
 10
3.541013689306964
 20
-4.77782196543194
 30
0.0
 11
-0.5867016769445761
 21
-7.16095174504621
 31
0.0
  0
ARC
  5
265
330
387
100
AcDbEntity
  8
ZUWAKU
  6
Continuous
 62
     7
100
AcDbCircle
 10
4.413296872458886
 20
-24.94963284946243
 30
0.0
 40
2.000000000000014
100
AcDbArc
 50
180.0
 51
270.0
  0
ARC
  5
266
330
387
100
AcDbEntity
  8
ZUWAKU
  6
Continuous
 62
     7
100
AcDbCircle
 10
13.41329687245889
 20
-24.94963284946243
 30
0.0
 40
2.000000000000014
100
AcDbArc
 50
270.0
 51
0.0
  0
LINE
  5
267
330
387
100
AcDbEntity
  8
ZUWAKU
  6
Continuous
 62
     7
100
AcDbLine
 10
5.204193426059191
 20
-18.61179137336877
 30
0.0
 11
5.204193426059191
 21
-12.16583382311728
 31
0.0
  0
LINE
  5
268
330
387
100
AcDbEntity
  8
ZUWAKU
  6
Continuous
 62
     7
100
AcDbLine
 10
12.62240031895908
 20
-18.61179137343859
 30
0.0
 11
12.62240031895908
 21
-12.16583382303816
 31
0.0
  0
ARC
  5
269
330
387
100
AcDbEntity
  8
ZUWAKU
  6
Continuous
 62
     7
100
AcDbCircle
 10
8.913296872458886
 20
-23.94963284946243
 30
0.0
 40
6.500000000000013
100
AcDbArc
 50
126.7624231044001
 51
180.0
  0
LINE
  5
26A
330
387
100
AcDbEntity
  8
ZUWAKU
  6
Continuous
 62
     7
100
AcDbLine
 10
2.413296738359349
 20
-24.94963235736213
 30
0.0
 11
2.413296738359349
 21
-23.94963405616272
 31
0.0
  0
LINE
  5
26B
330
387
100
AcDbEntity
  8
ZUWAKU
  6
Continuous
 62
     7
100
AcDbLine
 10
15.41329700655933
 20
-23.94963405616272
 30
0.0
 11
15.41329700655933
 21
-24.94963235736213
 31
0.0
  0
ARC
  5
26C
330
387
100
AcDbEntity
  8
ZUWAKU
  6
Continuous
 62
     7
100
AcDbCircle
 10
8.913296872458886
 20
-23.94963284946243
 30
0.0
 40
6.5
100
AcDbArc
 50
0.000000000000007
 51
53.23757689560004
  0
ARC
  5
26D
330
387
100
AcDbEntity
  8
ZUWAKU
  6
Continuous
 62
     7
100
AcDbCircle
 10
8.913296872458886
 20
-23.94963284946243
 30
0.0
 40
6.499999999999992
100
AcDbArc
 50
53.23757689559996
 51
126.7624231044
  0
LINE
  5
26E
330
387
100
AcDbEntity
  8
ZUWAKU
  6
Continuous
 62
     7
100
AcDbLine
 10
63.91324640925404
 20
-31.44963249146076
 30
0.0
 11
81.91324596225422
 21
-31.44963249146076
 31
0.0
  0
LINE
  5
26F
330
387
100
AcDbEntity
  8
ZUWAKU
  6
Continuous
 62
     7
100
AcDbLine
 10
62.91324640925403
 20
-8.026977857292102
 30
0.0
 11
62.91324640925403
 21
-30.44963249146076
 31
0.0
  0
LINE
  5
270
330
387
100
AcDbEntity
  8
ZUWAKU
  6
Continuous
 62
     7
100
AcDbLine
 10
82.91324596225422
 20
-8.026977857291361
 30
0.0
 11
82.91324596225422
 21
-30.44963249146076
 31
0.0
  0
LINE
  5
271
330
387
100
AcDbEntity
  8
ZUWAKU
  6
Continuous
 62
     7
100
AcDbLine
 10
77.41405661818408
 20
-26.94963268526044
 30
0.0
 11
68.41233437991377
 21
-26.94963268526044
 31
0.0
  0
LINE
  5
272
330
387
100
AcDbEntity
  8
ZUWAKU
  6
Continuous
 62
     7
100
AcDbLine
 10
82.41324473515762
 20
-7.16095174504353
 30
0.0
 11
78.28552936890537
 21
-4.777821965430121
 31
0.0
  0
LINE
  5
273
330
387
100
AcDbEntity
  8
ZUWAKU
  6
Continuous
 62
     7
100
AcDbLine
 10
67.54096300260197
 20
-4.777821965430121
 30
0.0
 11
63.41324763635044
 21
-7.160951745044387
 31
0.0
  0
ARC
  5
274
330
387
100
AcDbEntity
  8
ZUWAKU
  6
Continuous
 62
     7
100
AcDbCircle
 10
68.41324618575391
 20
-24.94963284946061
 30
0.0
 40
2.000000000000014
100
AcDbArc
 50
180.0
 51
270.0
  0
ARC
  5
275
330
387
100
AcDbEntity
  8
ZUWAKU
  6
Continuous
 62
     7
100
AcDbCircle
 10
77.4132461857539
 20
-24.94963284946061
 30
0.0
 40
2.000000000000014
100
AcDbArc
 50
270.0
 51
0.0
  0
LINE
  5
276
330
387
100
AcDbEntity
  8
ZUWAKU
  6
Continuous
 62
     7
100
AcDbLine
 10
69.20414273935421
 20
-18.61179137336694
 30
0.0
 11
69.20414273935421
 21
-12.16583382311546
 31
0.0
  0
LINE
  5
277
330
387
100
AcDbEntity
  8
ZUWAKU
  6
Continuous
 62
     7
100
AcDbLine
 10
76.6223496322541
 20
-18.61179137343678
 30
0.0
 11
76.6223496322541
 21
-12.16583382303634
 31
0.0
  0
ARC
  5
278
330
387
100
AcDbEntity
  8
ZUWAKU
  6
Continuous
 62
     7
100
AcDbCircle
 10
72.91324618575391
 20
-23.94963284946061
 30
0.0
 40
6.500000000000013
100
AcDbArc
 50
126.7624231044001
 51
180.0
  0
LINE
  5
279
330
387
100
AcDbEntity
  8
ZUWAKU
  6
Continuous
 62
     7
100
AcDbLine
 10
66.41324605165436
 20
-24.94963235736031
 30
0.0
 11
66.41324605165436
 21
-23.9496340561609
 31
0.0
  0
LINE
  5
27A
330
387
100
AcDbEntity
  8
ZUWAKU
  6
Continuous
 62
     7
100
AcDbLine
 10
79.41324631985435
 20
-23.9496340561609
 30
0.0
 11
79.41324631985435
 21
-24.94963235736031
 31
0.0
  0
ARC
  5
27B
330
387
100
AcDbEntity
  8
ZUWAKU
  6
Continuous
 62
     7
100
AcDbCircle
 10
72.91324618575391
 20
-23.94963284946061
 30
0.0
 40
6.5
100
AcDbArc
 50
0.000000000000007
 51
53.23757689560004
  0
ARC
  5
27C
330
387
100
AcDbEntity
  8
ZUWAKU
  6
Continuous
 62
     7
100
AcDbCircle
 10
72.91324618575391
 20
-23.94963284946061
 30
0.0
 40
6.499999999999992
100
AcDbArc
 50
53.23757689559996
 51
126.7624231044
  0
ARC
  5
27D
330
387
100
AcDbEntity
  8
ZUWAKU
  6
Continuous
 62
     7
100
AcDbCircle
 10
-0.0867029040409761
 20
-8.026977857293926
 30
0.0
 40
1.0
100
AcDbArc
 50
119.9999188159889
 51
180.0
  0
ARC
  5
27E
330
387
100
AcDbEntity
  8
ZUWAKU
  6
Continuous
 62
     7
100
AcDbCircle
 10
17.9132966489592
 20
-8.026977857293184
 30
0.0
 40
1.0
100
AcDbArc
 50
0.0
 51
60.00008118402439
  0
ARC
  5
27F
330
387
100
AcDbEntity
  8
ZUWAKU
  6
Continuous
 62
     7
100
AcDbCircle
 10
-0.0867029040409764
 20
-30.44963249146258
 30
0.0
 40
1.0
100
AcDbArc
 50
180.0
 51
270.0
  0
ARC
  5
280
330
387
100
AcDbEntity
  8
ZUWAKU
  6
Continuous
 62
     7
100
AcDbCircle
 10
17.9132966489592
 20
-30.44963249146258
 30
0.0
 40
1.0
100
AcDbArc
 50
270.0
 51
0.0
  0
ARC
  5
281
330
387
100
AcDbEntity
  8
ZUWAKU
  6
Continuous
 62
     7
100
AcDbCircle
 10
63.91324640925404
 20
-8.026977857292102
 30
0.0
 40
1.0
100
AcDbArc
 50
119.999918815989
 51
180.0
  0
ARC
  5
282
330
387
100
AcDbEntity
  8
ZUWAKU
  6
Continuous
 62
     7
100
AcDbCircle
 10
63.91324640925404
 20
-30.44963249146076
 30
0.0
 40
1.0
100
AcDbArc
 50
180.0
 51
270.0
  0
ARC
  5
283
330
387
100
AcDbEntity
  8
ZUWAKU
  6
Continuous
 62
     7
100
AcDbCircle
 10
81.91324596225422
 20
-30.44963249146076
 30
0.0
 40
1.0
100
AcDbArc
 50
270.0
 51
0.0
  0
ARC
  5
284
330
387
100
AcDbEntity
  8
ZUWAKU
  6
Continuous
 62
     7
100
AcDbCircle
 10
81.91324596225422
 20
-8.026977857291361
 30
0.0
 40
1.0
100
AcDbArc
 50
0.0
 51
60.00008118402456
  0
CIRCLE
  5
285
330
387
100
AcDbEntity
  8
LAYER0012
  6
Continuous
 62
     7
100
AcDbCircle
 10
8.913296872458886
 20
-7.449632849462433
 30
0.0
 40
6.0
  0
CIRCLE
  5
286
330
387
100
AcDbEntity
  8
LAYER0012
  6
Continuous
 62
     7
100
AcDbCircle
 10
8.913296872458886
 20
-7.449632849462433
 30
0.0
 40
4.924999999999999
  0
LINE
  5
287
330
387
100
AcDbEntity
  8
LAYER0012
  6
Continuous
 62
     7
100
AcDbLine
 10
3.162992752229002
 20
-25.0496326852608
 30
0.0
 11
3.162992752229002
 21
-26.34963268526099
 31
0.0
  0
LINE
  5
288
330
387
100
AcDbEntity
  8
LAYER0012
  6
Continuous
 62
     7
100
AcDbLine
 10
14.662992752229
 20
-25.0496326852608
 30
0.0
 11
3.162992752229002
 21
-25.0496326852608
 31
0.0
  0
ARC
  5
289
330
387
100
AcDbEntity
  8
LAYER0012
  6
Continuous
 62
     7
100
AcDbCircle
 10
3.462992752229183
 20
-26.34963268526099
 30
0.0
 40
0.3
100
AcDbArc
 50
180.0
 51
270.0
  0
LINE
  5
28A
330
387
100
AcDbEntity
  8
LAYER0012
  6
Continuous
 62
     7
100
AcDbLine
 10
3.462992752229183
 20
-26.64963268526026
 30
0.0
 11
14.36299275222927
 21
-26.64963268526026
 31
0.0
  0
LINE
  5
28B
330
387
100
AcDbEntity
  8
LAYER0012
  6
Continuous
 62
     7
100
AcDbLine
 10
14.662992752229
 20
-26.34963268526099
 30
0.0
 11
14.662992752229
 21
-25.0496326852608
 31
0.0
  0
ARC
  5
28C
330
387
100
AcDbEntity
  8
LAYER0012
  6
Continuous
 62
     7
100
AcDbCircle
 10
14.36299275222927
 20
-26.34963268526099
 30
0.0
 40
0.3
100
AcDbArc
 50
270.0
 51
0.0
  0
CIRCLE
  5
28D
330
387
100
AcDbEntity
  8
LAYER0012
  6
Continuous
 62
     7
100
AcDbCircle
 10
72.91324618575391
 20
-7.449632849460612
 30
0.0
 40
6.0
  0
CIRCLE
  5
28E
330
387
100
AcDbEntity
  8
LAYER0012
  6
Continuous
 62
     7
100
AcDbCircle
 10
72.91324618575391
 20
-7.449632849460612
 30
0.0
 40
4.924999999999999
  0
LINE
  5
28F
330
387
100
AcDbEntity
  8
LAYER0012
  6
Continuous
 62
     7
100
AcDbLine
 10
67.16294206552402
 20
-25.04963268525898
 30
0.0
 11
67.16294206552402
 21
-26.34963268525917
 31
0.0
  0
LINE
  5
290
330
387
100
AcDbEntity
  8
LAYER0012
  6
Continuous
 62
     7
100
AcDbLine
 10
78.66294206552402
 20
-25.04963268525898
 30
0.0
 11
67.16294206552402
 21
-25.04963268525898
 31
0.0
  0
ARC
  5
291
330
387
100
AcDbEntity
  8
LAYER0012
  6
Continuous
 62
     7
100
AcDbCircle
 10
67.4629420655242
 20
-26.34963268525917
 30
0.0
 40
0.3
100
AcDbArc
 50
180.0
 51
270.0
  0
LINE
  5
292
330
387
100
AcDbEntity
  8
LAYER0012
  6
Continuous
 62
     7
100
AcDbLine
 10
67.4629420655242
 20
-26.64963268525844
 30
0.0
 11
78.3629420655243
 21
-26.64963268525844
 31
0.0
  0
LINE
  5
293
330
387
100
AcDbEntity
  8
LAYER0012
  6
Continuous
 62
     7
100
AcDbLine
 10
78.66294206552402
 20
-26.34963268525917
 30
0.0
 11
78.66294206552402
 21
-25.04963268525898
 31
0.0
  0
ARC
  5
294
330
387
100
AcDbEntity
  8
LAYER0012
  6
Continuous
 62
     7
100
AcDbCircle
 10
78.3629420655243
 20
-26.34963268525917
 30
0.0
 40
0.3
100
AcDbArc
 50
270.0
 51
0.0
  0
LINE
  5
295
330
387
100
AcDbEntity
  8
LAYER0012
  6
Continuous
 62
     7
100
AcDbLine
 10
-26.08655106742572
 20
61.35036774345826
 30
0.0
 11
-26.08655106742572
 21
46.65036774345753
 31
0.0
  0
LINE
  5
296
330
387
100
AcDbEntity
  8
LAYER0012
  6
Continuous
 62
     7
100
AcDbLine
 10
-17.55101716149284
 20
64.88590164939068
 30
0.0
 11
-11.9012696931868
 21
59.2361541810842
 31
0.0
  0
ARC
  5
297
330
387
100
AcDbEntity
  8
LAYER0012
  6
Continuous
 62
     7
100
AcDbCircle
 10
-21.08655106742572
 20
61.35036774345826
 30
0.0
 40
5.0
100
AcDbArc
 50
44.99999999999631
 51
180.0
  0
ARC
  5
298
330
387
100
AcDbEntity
  8
LAYER0012
  6
Continuous
 62
     7
100
AcDbCircle
 10
-21.08655106742572
 20
61.35036774345826
 30
0.0
 40
2.0
100
AcDbArc
 50
44.99999999999539
 51
179.7891728811004
  0
ARC
  5
299
330
387
100
AcDbEntity
  8
LAYER0012
  6
Continuous
 62
     7
100
AcDbCircle
 10
-10.48705613081393
 20
60.65036774345753
 30
0.0
 40
2.0
100
AcDbArc
 50
224.9999999999965
 51
270.0
  0
LINE
  5
29A
330
387
100
AcDbEntity
  8
LAYER0012
  6
Continuous
 62
     7
100
AcDbLine
 10
2.913448932573828
 20
63.45036867485669
 30
0.0
 11
2.913448932573828
 21
59.45036867485669
 31
0.0
  0
LINE
  5
29B
330
387
100
AcDbEntity
  8
LAYER0012
  6
Continuous
 62
     7
100
AcDbLine
 10
14.91344893257383
 20
63.45036867485669
 30
0.0
 11
2.913448932573828
 21
63.45036867485669
 31
0.0
  0
LINE
  5
29C
330
387
100
AcDbEntity
  8
LAYER0012
  6
Continuous
 62
     7
100
AcDbLine
 10
14.91344893257383
 20
59.45036867485669
 30
0.0
 11
14.91344893257383
 21
63.45036867485669
 31
0.0
  0
LINE
  5
29D
330
387
100
AcDbEntity
  8
LAYER0012
  6
Continuous
 62
     7
100
AcDbLine
 10
2.913448932573828
 20
59.45036867485669
 30
0.0
 11
14.91344893257383
 21
59.45036867485669
 31
0.0
  0
LINE
  5
29E
330
387
100
AcDbEntity
  8
LAYER0012
  6
Continuous
 62
     7
100
AcDbLine
 10
6.113448932573647
 20
63.65036867485651
 30
0.0
 11
6.113448932573647
 21
63.45036867485669
 31
0.0
  0
ARC
  5
29F
330
387
100
AcDbEntity
  8
LAYER0012
  6
Continuous
 62
     7
100
AcDbCircle
 10
6.613448932573647
 20
63.65036867485651
 30
0.0
 40
0.5
100
AcDbArc
 50
90.0
 51
180.0
  0
LINE
  5
2A0
330
387
100
AcDbEntity
  8
LAYER0012
  6
Continuous
 62
     7
100
AcDbLine
 10
11.71344893257401
 20
63.65036867485651
 30
0.0
 11
11.71344893257401
 21
63.45036867485669
 31
0.0
  0
ARC
  5
2A1
330
387
100
AcDbEntity
  8
LAYER0012
  6
Continuous
 62
     7
100
AcDbCircle
 10
11.21344893257401
 20
63.65036867485651
 30
0.0
 40
0.5
100
AcDbArc
 50
0.0
 51
90.0
  0
LINE
  5
2A2
330
387
100
AcDbEntity
  8
LAYER0012
  6
Continuous
 62
     7
100
AcDbLine
 10
11.21344893257401
 20
64.15036867485651
 30
0.0
 11
6.613448932573647
 21
64.15036867485651
 31
0.0
  0
LINE
  5
2A3
330
387
100
AcDbEntity
  8
LAYER0012
  6
Continuous
 62
     7
100
AcDbLine
 10
4.913448932573829
 20
58.65036774345753
 30
0.0
 11
4.913448932573829
 21
59.45036774345726
 31
0.0
  0
LINE
  5
2A4
330
387
100
AcDbEntity
  8
LAYER0012
  6
Continuous
 62
     7
100
AcDbLine
 10
12.91344893257383
 20
59.45036774345726
 30
0.0
 11
12.91344893257383
 21
58.65036774345753
 31
0.0
  0
LINE
  5
2A5
330
387
100
AcDbEntity
  8
LAYER0012
  6
Continuous
 62
     7
100
AcDbLine
 10
2.913449031423624
 20
48.85036810205656
 30
0.0
 11
14.91344903142362
 21
48.85036810205656
 31
0.0
  0
LINE
  5
2A6
330
387
100
AcDbEntity
  8
LAYER0012
  6
Continuous
 62
     7
100
AcDbLine
 10
2.913449031423624
 20
44.85036810205656
 30
0.0
 11
2.913449031423624
 21
48.85036810205656
 31
0.0
  0
LINE
  5
2A7
330
387
100
AcDbEntity
  8
LAYER0012
  6
Continuous
 62
     7
100
AcDbLine
 10
14.91344903142362
 20
44.85036810205656
 30
0.0
 11
2.913449031423624
 21
44.85036810205656
 31
0.0
  0
LINE
  5
2A8
330
387
100
AcDbEntity
  8
LAYER0012
  6
Continuous
 62
     7
100
AcDbLine
 10
14.91344903142362
 20
48.85036810205656
 30
0.0
 11
14.91344903142362
 21
44.85036810205656
 31
0.0
  0
LINE
  5
2A9
330
387
100
AcDbEntity
  8
LAYER0012
  6
Continuous
 62
     7
100
AcDbLine
 10
6.013449031424442
 20
43.45036810205693
 30
0.0
 11
11.81344903142462
 21
43.45036810205693
 31
0.0
  0
ARC
  5
2AA
330
387
100
AcDbEntity
  8
LAYER0012
  6
Continuous
 62
     7
100
AcDbCircle
 10
11.81344903142462
 20
44.15036810205675
 30
0.0
 40
0.7
100
AcDbArc
 50
270.0
 51
90.0
  0
ARC
  5
2AB
330
387
100
AcDbEntity
  8
LAYER0012
  6
Continuous
 62
     7
100
AcDbCircle
 10
6.013449031424442
 20
44.15036810205675
 30
0.0
 40
0.7
100
AcDbArc
 50
90.0
 51
270.0
  0
LINE
  5
2AC
330
387
100
AcDbEntity
  8
LAYER0012
  6
Continuous
 62
     7
100
AcDbLine
 10
6.013449031424442
 20
44.85036810205656
 30
0.0
 11
11.81344903142462
 21
44.85036810205656
 31
0.0
  0
LINE
  5
2AD
330
387
100
AcDbEntity
  8
LAYER0012
  6
Continuous
 62
     7
100
AcDbLine
 10
4.913449031423624
 20
49.65036810205584
 30
0.0
 11
4.913449031423624
 21
48.85036810205656
 31
0.0
  0
LINE
  5
2AE
330
387
100
AcDbEntity
  8
LAYER0012
  6
Continuous
 62
     7
100
AcDbLine
 10
12.91344903142362
 20
48.85036810205656
 30
0.0
 11
12.91344903142362
 21
49.65036810205584
 31
0.0
  0
LINE
  5
2AF
330
387
100
AcDbEntity
  8
LAYER0012
  6
Continuous
 62
     7
100
AcDbLine
 10
66.91344893257383
 20
63.45036867485669
 30
0.0
 11
66.91344893257383
 21
59.45036867485669
 31
0.0
  0
LINE
  5
2B0
330
387
100
AcDbEntity
  8
LAYER0012
  6
Continuous
 62
     7
100
AcDbLine
 10
78.91344893257382
 20
63.45036867485669
 30
0.0
 11
66.91344893257383
 21
63.45036867485669
 31
0.0
  0
LINE
  5
2B1
330
387
100
AcDbEntity
  8
LAYER0012
  6
Continuous
 62
     7
100
AcDbLine
 10
78.91344893257382
 20
59.45036867485669
 30
0.0
 11
78.91344893257382
 21
63.45036867485669
 31
0.0
  0
LINE
  5
2B2
330
387
100
AcDbEntity
  8
LAYER0012
  6
Continuous
 62
     7
100
AcDbLine
 10
66.91344893257383
 20
59.45036867485669
 30
0.0
 11
78.91344893257382
 21
59.45036867485669
 31
0.0
  0
LINE
  5
2B3
330
387
100
AcDbEntity
  8
LAYER0012
  6
Continuous
 62
     7
100
AcDbLine
 10
70.11344893257365
 20
63.65036867485651
 30
0.0
 11
70.11344893257365
 21
63.45036867485669
 31
0.0
  0
ARC
  5
2B4
330
387
100
AcDbEntity
  8
LAYER0012
  6
Continuous
 62
     7
100
AcDbCircle
 10
70.61344893257365
 20
63.65036867485651
 30
0.0
 40
0.5
100
AcDbArc
 50
90.0
 51
180.0
  0
LINE
  5
2B5
330
387
100
AcDbEntity
  8
LAYER0012
  6
Continuous
 62
     7
100
AcDbLine
 10
75.71344893257401
 20
63.65036867485651
 30
0.0
 11
75.71344893257401
 21
63.45036867485669
 31
0.0
  0
ARC
  5
2B6
330
387
100
AcDbEntity
  8
LAYER0012
  6
Continuous
 62
     7
100
AcDbCircle
 10
75.21344893257401
 20
63.65036867485651
 30
0.0
 40
0.5
100
AcDbArc
 50
0.0
 51
90.0
  0
LINE
  5
2B7
330
387
100
AcDbEntity
  8
LAYER0012
  6
Continuous
 62
     7
100
AcDbLine
 10
75.21344893257401
 20
64.15036867485651
 30
0.0
 11
70.61344893257365
 21
64.15036867485651
 31
0.0
  0
LINE
  5
2B8
330
387
100
AcDbEntity
  8
LAYER0012
  6
Continuous
 62
     7
100
AcDbLine
 10
68.91344893257382
 20
58.65036774345753
 30
0.0
 11
68.91344893257382
 21
59.45036774345726
 31
0.0
  0
LINE
  5
2B9
330
387
100
AcDbEntity
  8
LAYER0012
  6
Continuous
 62
     7
100
AcDbLine
 10
76.91344893257383
 20
59.45036774345726
 30
0.0
 11
76.91344893257383
 21
58.65036774345753
 31
0.0
  0
LINE
  5
2BA
330
387
100
AcDbEntity
  8
LAYER0012
  6
Continuous
 62
     7
100
AcDbLine
 10
66.91344903142361
 20
48.85036810205656
 30
0.0
 11
78.91344903142362
 21
48.85036810205656
 31
0.0
  0
LINE
  5
2BB
330
387
100
AcDbEntity
  8
LAYER0012
  6
Continuous
 62
     7
100
AcDbLine
 10
66.91344903142361
 20
44.85036810205656
 30
0.0
 11
66.91344903142361
 21
48.85036810205656
 31
0.0
  0
LINE
  5
2BC
330
387
100
AcDbEntity
  8
LAYER0012
  6
Continuous
 62
     7
100
AcDbLine
 10
78.91344903142362
 20
44.85036810205656
 30
0.0
 11
66.91344903142361
 21
44.85036810205656
 31
0.0
  0
LINE
  5
2BD
330
387
100
AcDbEntity
  8
LAYER0012
  6
Continuous
 62
     7
100
AcDbLine
 10
78.91344903142362
 20
48.85036810205656
 30
0.0
 11
78.91344903142362
 21
44.85036810205656
 31
0.0
  0
LINE
  5
2BE
330
387
100
AcDbEntity
  8
LAYER0012
  6
Continuous
 62
     7
100
AcDbLine
 10
70.01344903142444
 20
43.45036810205693
 30
0.0
 11
75.81344903142462
 21
43.45036810205693
 31
0.0
  0
ARC
  5
2BF
330
387
100
AcDbEntity
  8
LAYER0012
  6
Continuous
 62
     7
100
AcDbCircle
 10
75.81344903142462
 20
44.15036810205675
 30
0.0
 40
0.7
100
AcDbArc
 50
270.0
 51
90.0
  0
ARC
  5
2C0
330
387
100
AcDbEntity
  8
LAYER0012
  6
Continuous
 62
     7
100
AcDbCircle
 10
70.01344903142444
 20
44.15036810205675
 30
0.0
 40
0.7
100
AcDbArc
 50
90.0
 51
270.0
  0
LINE
  5
2C1
330
387
100
AcDbEntity
  8
LAYER0012
  6
Continuous
 62
     7
100
AcDbLine
 10
70.01344903142444
 20
44.85036810205656
 30
0.0
 11
75.81344903142462
 21
44.85036810205656
 31
0.0
  0
LINE
  5
2C2
330
387
100
AcDbEntity
  8
LAYER0012
  6
Continuous
 62
     7
100
AcDbLine
 10
68.91344903142361
 20
49.65036810205584
 30
0.0
 11
68.91344903142361
 21
48.85036810205656
 31
0.0
  0
LINE
  5
2C3
330
387
100
AcDbEntity
  8
LAYER0012
  6
Continuous
 62
     7
100
AcDbLine
 10
76.91344903142362
 20
48.85036810205656
 30
0.0
 11
76.91344903142362
 21
49.65036810205584
 31
0.0
  0
INSERT
  5
2C4
330
387
100
AcDbEntity
  8
0
  6
Continuous
100
AcDbBlockReference
  2
DC_GROUP_1
 10
0.0
 20
0.0
 30
0.0
  0
INSERT
  5
2C5
330
387
100
AcDbEntity
  8
0
  6
Continuous
100
AcDbBlockReference
  2
DC_GROUP_2
 10
0.0
 20
0.0
 30
0.0
  0
INSERT
  5
2C6
330
387
100
AcDbEntity
  8
0
  6
Continuous
100
AcDbBlockReference
  2
DC_GROUP_3
 10
0.0
 20
0.0
 30
0.0
  0
INSERT
  5
2C7
330
387
100
AcDbEntity
  8
0
  6
Continuous
100
AcDbBlockReference
  2
DC_GROUP_4
 10
0.0
 20
0.0
 30
0.0
  0
INSERT
  5
2C8
330
387
100
AcDbEntity
  8
0
  6
Continuous
100
AcDbBlockReference
  2
DC_GROUP_5
 10
0.0
 20
0.0
 30
0.0
  0
INSERT
  5
2C9
330
387
100
AcDbEntity
  8
0
  6
Continuous
100
AcDbBlockReference
  2
DC_GROUP_6
 10
0.0
 20
0.0
 30
0.0
  0
INSERT
  5
2CA
330
387
100
AcDbEntity
  8
0
  6
Continuous
100
AcDbBlockReference
  2
DC_GROUP_8
 10
0.0
 20
0.0
 30
0.0
  0
DIMENSION
  5
2CB
330
387
100
AcDbEntity
  8
0
  6
Continuous
100
AcDbDimension
  2
*D10
 10
-30.93655106742608
 20
64.35036774345826
 30
0.0
 11
-73.51155106742613
 21
64.35036774345826
 31
0.0
 70
   160
  1
85
 71
     5
 42
-1.0
  3
DC_ROTATED
100
AcDbAlignedDimension
 13
-116.0865510674262
 23
27.72554844961451
 33
0.0
 14
-30.93655106742608
 24
56.10036774345826
 34
0.0
100
AcDbRotatedDimension
1001
ACAD
1000
DSTYLE
1002
{
1070
     7
1000
OPEN30
1070
     6
1000
OPEN30
1070
   274
1070
     4
1070
    41
1040
2.000107526779175
1070
    79
1070
     2
1070
   176
1070
     4
1070
   177
1070
     4
1070
   178
1070
     7
1070
   271
1070
     2
1070
    44
1040
1.0
1070
    42
1040
0.0
1070
   147
1040
0.7999999999999972
1070
   173
1070
     1
1070
    77
1070
     3
1070
    73
1070
     0
1070
   172
1070
     1
1070
    74
1070
     0
1070
   283
1070
     0
1070
   340
1005
136
1070
   140
1040
3.5
1070
   284
1070
     8
1070
   288
1070
     1
1070
    78
1070
     8
1070
    90
1070
     1
1002
}
  0
DIMENSION
  5
2CD
330
387
100
AcDbEntity
  8
0
  6
Continuous
100
AcDbDimension
  2
*D12
 10
-26.08655106742572
 20
72.35036774345826
 30
0.0
 11
-71.08655106742594
 21
72.35036774345826
 31
0.0
 70
   160
 71
     5
 42
-1.0
  3
DC_ROTATED
100
AcDbAlignedDimension
 13
-116.0865510674262
 23
65.35036774345826
 33
0.0
 14
-26.08655106742572
 24
61.35036774345826
 34
0.0
100
AcDbRotatedDimension
1001
ACAD
1000
DSTYLE
1002
{
1070
     7
1000
OPEN30
1070
     6
1000
OPEN30
1070
   274
1070
     4
1070
    41
1040
2.000107526779175
1070
    79
1070
     2
1070
   176
1070
     4
1070
   177
1070
     4
1070
   178
1070
     7
1070
   271
1070
     2
1070
    44
1040
1.0
1070
    42
1040
0.0
1070
   147
1040
0.7999999999999972
1070
   173
1070
     1
1070
    77
1070
     3
1070
    73
1070
     0
1070
   172
1070
     1
1070
    74
1070
     0
1070
   283
1070
     0
1070
   340
1005
136
1070
   140
1040
3.5
1070
   284
1070
     8
1070
   288
1070
     1
1070
    78
1070
     8
1070
    90
1070
     1
1002
}
  0
INSERT
  5
2CE
330
387
100
AcDbEntity
  8
0
  6
Continuous
100
AcDbBlockReference
  2
DA_IMAGEDIMGROUP_1
 10
0.0
 20
0.0
 30
0.0
  0
DIMENSION
  5
2CF
330
387
100
AcDbEntity
  8
0
  6
Continuous
100
AcDbDimension
  2
*D14
 10
100.9134489325738
 20
54.15036774345754
 30
0.0
 11
100.9134489325738
 21
38.40036774345754
 31
0.0
 70
   160
 71
     5
 42
-1.0
  3
DC_ROTATED
100
AcDbAlignedDimension
 13
-36.44851102744315
 23
22.65036774345754
 33
0.0
 14
84.91344870907369
 24
54.15036774345754
 34
0.0
 50
90.0
100
AcDbRotatedDimension
1001
ACAD
1000
DSTYLE
1002
{
1070
     7
1000
OPEN30
1070
     6
1000
OPEN30
1070
   274
1070
     4
1070
    41
1040
2.000107526779175
1070
    79
1070
     2
1070
   176
1070
     4
1070
   177
1070
     4
1070
   178
1070
     7
1070
   271
1070
     2
1070
    44
1040
1.0
1070
    42
1040
0.0
1070
   147
1040
0.7999999999999972
1070
   173
1070
     1
1070
    77
1070
     3
1070
    73
1070
     0
1070
   172
1070
     1
1070
    74
1070
     0
1070
   283
1070
     0
1070
   340
1005
136
1070
   140
1040
3.5
1070
   284
1070
     8
1070
   288
1070
     1
1070
    78
1070
     8
1070
    90
1070
     1
1002
}
  0
DIMENSION
  5
2D0
330
387
100
AcDbEntity
  8
0
  6
Continuous
100
AcDbDimension
  2
*D15
 10
100.9134489325738
 20
71.93497743428451
 30
0.0
 11
100.9134489325738
 21
63.04267258887103
 31
0.0
 70
   160
  1
17.5
 71
     5
 42
-1.0
  3
DC_ROTATED
100
AcDbAlignedDimension
 13
84.91344870907369
 23
54.15036774345754
 33
0.0
 14
88.31537272121977
 24
71.93497743428451
 34
0.0
 50
90.0
100
AcDbRotatedDimension
1001
ACAD
1000
DSTYLE
1002
{
1070
     7
1000
OPEN30
1070
     6
1000
OPEN30
1070
   274
1070
     4
1070
    41
1040
2.000107526779175
1070
    79
1070
     2
1070
   176
1070
     4
1070
   177
1070
     4
1070
   178
1070
     7
1070
   271
1070
     2
1070
    44
1040
1.0
1070
    42
1040
0.0
1070
   147
1040
0.7999999999999972
1070
   173
1070
     1
1070
    77
1070
     3
1070
    73
1070
     0
1070
   172
1070
     1
1070
    74
1070
     0
1070
   283
1070
     0
1070
   340
1005
136
1070
   140
1040
3.5
1070
   284
1070
     8
1070
   288
1070
     1
1070
    78
1070
     8
1070
    90
1070
     1
1002
}
  0
DIMENSION
  5
2D1
330
387
100
AcDbEntity
  8
0
  6
Continuous
100
AcDbDimension
  2
*D16
 10
100.9134489325747
 20
-18.44963284946152
 30
0.0
 11
100.9134489325747
 21
-31.14487613997517
 31
0.0
 70
   160
  1
環下寸法25.5
 71
     5
 42
-1.0
  3
DC_ROTATED
100
AcDbAlignedDimension
 13
87.02239361100827
 23
-43.84011943048881
 33
0.0
 14
90.91344893257472
 24
-18.44963284946152
 34
0.0
 50
90.0
100
AcDbRotatedDimension
1001
ACAD
1000
DSTYLE
1002
{
1070
     7
1000
OPEN30
1070
     6
1000
OPEN30
1070
   274
1070
     4
1070
    41
1040
2.000107526779175
1070
    79
1070
     2
1070
   176
1070
     4
1070
   177
1070
     4
1070
   178
1070
     7
1070
   271
1070
     2
1070
    44
1040
1.0
1070
    42
1040
0.0
1070
   147
1040
0.7999999999999972
1070
   173
1070
     1
1070
    77
1070
     3
1070
    73
1070
     0
1070
   172
1070
     1
1070
    74
1070
     0
1070
   283
1070
     0
1070
   340
1005
136
1070
   140
1040
3.5
1070
   284
1070
     8
1070
   288
1070
     1
1070
    78
1070
     8
1070
    90
1070
     1
1002
}
  0
TEXT
  5
2D2
330
387
100
AcDbEntity
  8
0
 62
     7
100
AcDbText
 10
96.69342781308547
 20
-121.2750821827745
 30
0.0
 40
2.799999999999999
  1
品番
 41
0.937500000000006
  7
DCSTYLE0
 72
     5
 11
102.2934278130855
 21
-121.2750821827745
 31
0.0
100
AcDbText
  0
TEXT
  5
2D3
330
387
100
AcDbEntity
  8
0
 62
     7
100
AcDbText
 10
94.94342781308546
 20
-127.8750821827745
 30
0.0
 40
3.5
  1
S-3TBM
 41
0.5294117647058841
  7
DCSTYLE0
 72
     5
 11
105.4434278130855
 21
-127.8750821827745
 31
0.0
100
AcDbText
  0
TEXT
  5
2D4
330
387
100
AcDbEntity
  8
0
 62
     7
100
AcDbText
 10
111.9434278130855
 20
-127.5250821827745
 30
0.0
 40
2.799999999999999
  1
レクト30用 MG付き 手引き交叉ランナー
 41
0.7929515418502195
  7
DCSTYLE0
 72
     5
 11
162.3434278130854
 21
-127.5250821827745
 31
0.0
100
AcDbText
  0
TEXT
  5
2D5
330
387
100
AcDbEntity
  8
0
 62
     7
100
AcDbText
 10
171.9442618160561
 20
-121.2750821827745
 30
0.0
 40
2.799999999999999
  1
管理番号
 41
0.8823529411764695
  7
DCSTYLE0
 72
     5
 11
183.1442618160562
 21
-121.2750821827745
 31
0.0
100
AcDbText
  0
TEXT
  5
2D6
330
387
100
AcDbEntity
  8
0
 62
     7
100
AcDbText
 10
173.1942618160562
 20
-127.8750821827745
 30
0.0
 40
3.5
  1
56678
 41
0.5357142857142857
  7
DCSTYLE0
 72
     5
 11
181.9442618160562
 21
-127.8750821827745
 31
0.0
100
AcDbText
  0
TEXT
  5
2D7
330
387
100
AcDbEntity
  8
0
 62
     7
100
AcDbText
 10
134.6934278130855
 20
-121.2750821827745
 30
0.0
 40
2.799999999999999
  1
品名
 41
0.9677419354838699
  7
DCSTYLE0
 72
     5
 11
140.2934278130855
 21
-121.2750821827745
 31
0.0
100
AcDbText
  0
TEXT
  5
2D8
330
387
100
AcDbEntity
  8
0
 62
     7
100
AcDbText
 10
80.69342781308545
 20
-121.2750821827745
 30
0.0
 40
2.799999999999999
  1
NO.
 41
0.7500000000000029
  7
DCSTYLE0
 72
     5
 11
84.89342781308547
 21
-121.2750821827745
 31
0.0
100
AcDbText
  0
LINE
  5
2D9
330
387
100
AcDbEntity
  8
ZUWAKU
  6
Continuous
 62
     7
100
AcDbLine
 10
15.89556915217372
 20
49.65036810205675
 30
0.0
 11
1.931328910673528
 21
49.65036810205675
 31
0.0
  0
LINE
  5
2DA
330
387
100
AcDbEntity
  8
ZUWAKU
  6
Continuous
 62
     7
100
AcDbLine
 10
1.931328910673528
 20
58.65036771465748
 30
0.0
 11
15.89556915217372
 21
58.65036771465748
 31
0.0
  0
ARC
  5
2DB
330
387
100
AcDbEntity
  8
ZUWAKU
  6
Continuous
 62
     7
100
AcDbCircle
 10
8.913448932573828
 20
59.15036774345754
 30
0.0
 40
12.00000000000001
100
AcDbArc
 50
300.0000005449875
 51
326.4426902381
  0
ARC
  5
2DC
330
387
100
AcDbEntity
  8
ZUWAKU
  6
Continuous
 62
     7
100
AcDbCircle
 10
8.913448932573828
 20
49.15036774345754
 30
0.0
 40
11.99999999999999
100
AcDbArc
 50
33.55730976189999
 51
59.99999999999997
  0
ARC
  5
2DD
330
387
100
AcDbEntity
  8
ZUWAKU
  6
Continuous
 62
     7
100
AcDbCircle
 10
15.89556895447367
 20
50.65036774345753
 30
0.0
 40
1.0
100
AcDbArc
 50
270.0
 51
309.4005687537005
  0
ARC
  5
2DE
330
387
100
AcDbEntity
  8
ZUWAKU
  6
Continuous
 62
     7
100
AcDbCircle
 10
15.89556895447367
 20
57.65036774345754
 30
0.0
 40
1.0
100
AcDbArc
 50
50.59943124629946
 51
90.0
  0
ARC
  5
2DF
330
387
100
AcDbEntity
  8
ZUWAKU
  6
Continuous
 62
     7
100
AcDbCircle
 10
1.931328910673528
 20
57.65036774345754
 30
0.0
 40
1.0
100
AcDbArc
 50
90.0
 51
129.4005687537005
  0
ARC
  5
2E0
330
387
100
AcDbEntity
  8
ZUWAKU
  6
Continuous
 62
     7
100
AcDbCircle
 10
1.931328910673528
 20
50.65036774345753
 30
0.0
 40
1.000000000000009
100
AcDbArc
 50
230.5994312463005
 51
270.0
  0
ARC
  5
2E1
330
387
100
AcDbEntity
  8
ZUWAKU
  6
Continuous
 62
     7
100
AcDbCircle
 10
8.913448932573828
 20
49.15036774345754
 30
0.0
 40
12.00000000000001
100
AcDbArc
 50
120.0
 51
146.4426902381001
  0
ARC
  5
2E2
330
387
100
AcDbEntity
  8
ZUWAKU
  6
Continuous
 62
     7
100
AcDbCircle
 10
8.913448932573828
 20
59.15036774345754
 30
0.0
 40
12.00000000000003
100
AcDbArc
 50
213.5573097619
 51
240.0000005449876
  0
LINE
  5
2E3
330
387
100
AcDbEntity
  8
ZUWAKU
  6
Continuous
 62
     7
100
AcDbLine
 10
18.91344870907369
 20
55.77562452125675
 30
0.0
 11
18.91344870907369
 21
52.52511129545745
 31
0.0
  0
LINE
  5
2E4
330
387
100
AcDbEntity
  8
ZUWAKU
  6
Continuous
 62
     7
100
AcDbLine
 10
-1.086550843926489
 20
52.52511129545745
 30
0.0
 11
-1.086550843926489
 21
55.77562452125675
 31
0.0
  0
LINE
  5
2E5
330
387
100
AcDbEntity
  8
ZUWAKU
  6
Continuous
 62
     7
100
AcDbLine
 10
79.89556915217372
 20
49.65036810205675
 30
0.0
 11
65.93132891067353
 21
49.65036810205675
 31
0.0
  0
LINE
  5
2E6
330
387
100
AcDbEntity
  8
ZUWAKU
  6
Continuous
 62
     7
100
AcDbLine
 10
65.93132891067353
 20
58.65036771465748
 30
0.0
 11
79.89556915217372
 21
58.65036771465748
 31
0.0
  0
ARC
  5
2E7
330
387
100
AcDbEntity
  8
ZUWAKU
  6
Continuous
 62
     7
100
AcDbCircle
 10
72.91344893257383
 20
59.15036774345754
 30
0.0
 40
12.00000000000001
100
AcDbArc
 50
300.0000005449875
 51
326.4426902381
  0
ARC
  5
2E8
330
387
100
AcDbEntity
  8
ZUWAKU
  6
Continuous
 62
     7
100
AcDbCircle
 10
72.91344893257383
 20
49.15036774345754
 30
0.0
 40
11.99999999999999
100
AcDbArc
 50
33.55730976189999
 51
59.99999999999997
  0
ARC
  5
2E9
330
387
100
AcDbEntity
  8
ZUWAKU
  6
Continuous
 62
     7
100
AcDbCircle
 10
79.89556895447368
 20
50.65036774345753
 30
0.0
 40
1.0
100
AcDbArc
 50
270.0
 51
309.4005687537005
  0
ARC
  5
2EA
330
387
100
AcDbEntity
  8
ZUWAKU
  6
Continuous
 62
     7
100
AcDbCircle
 10
79.89556895447368
 20
57.65036774345754
 30
0.0
 40
1.0
100
AcDbArc
 50
50.59943124629946
 51
90.0
  0
ARC
  5
2EB
330
387
100
AcDbEntity
  8
ZUWAKU
  6
Continuous
 62
     7
100
AcDbCircle
 10
65.93132891067353
 20
57.65036774345754
 30
0.0
 40
1.0
100
AcDbArc
 50
90.0
 51
129.4005687537005
  0
ARC
  5
2EC
330
387
100
AcDbEntity
  8
ZUWAKU
  6
Continuous
 62
     7
100
AcDbCircle
 10
65.93132891067353
 20
50.65036774345753
 30
0.0
 40
1.000000000000009
100
AcDbArc
 50
230.5994312463005
 51
270.0
  0
ARC
  5
2ED
330
387
100
AcDbEntity
  8
ZUWAKU
  6
Continuous
 62
     7
100
AcDbCircle
 10
72.91344893257383
 20
49.15036774345754
 30
0.0
 40
12.00000000000001
100
AcDbArc
 50
120.0
 51
146.4426902381001
  0
ARC
  5
2EE
330
387
100
AcDbEntity
  8
ZUWAKU
  6
Continuous
 62
     7
100
AcDbCircle
 10
72.91344893257383
 20
59.15036774345754
 30
0.0
 40
12.00000000000003
100
AcDbArc
 50
213.5573097619
 51
240.0000005449876
  0
LINE
  5
2EF
330
387
100
AcDbEntity
  8
ZUWAKU
  6
Continuous
 62
     7
100
AcDbLine
 10
82.91344870907369
 20
55.77562452125675
 30
0.0
 11
82.91344870907369
 21
52.52511129545745
 31
0.0
  0
LINE
  5
2F0
330
387
100
AcDbEntity
  8
ZUWAKU
  6
Continuous
 62
     7
100
AcDbLine
 10
62.9134491560735
 20
52.52511129545745
 30
0.0
 11
62.9134491560735
 21
55.77562452125675
 31
0.0
  0
VIEWPORT
  5
78
102
{ACAD_XDICTIONARY
360
487
102
}
330
383
100
AcDbEntity
 67
     1
  8
0
100
AcDbViewport
 10
32.42885537431454
 20
-28.97005237424497
 30
0.0
 40
939.0924386504497
 41
605.4301788511769
 68
     1
 69
     1
 12
32.42885537431454
 22
-28.97005237424497
 13
0.0
 23
0.0
 14
0.5
 24
0.5
 15
0.0
 25
0.0
 16
0.0
 26
0.0
 36
1.0
 17
0.0
 27
0.0
 37
0.0
 42
50.0
 43
0.0
 44
0.0
 45
605.4301788511769
 50
0.0
 51
0.0
 72
   100
 90
    32864
  1

281
     0
 71
     0
 74
     0
110
0.0
120
0.0
130
0.0
111
1.0
121
0.0
131
0.0
112
0.0
122
1.0
132
0.0
 79
     0
146
0.0
1001
GENIUS_GENSCREG_15
1000
PF
1040
1.0
1000
DF
1040
1.0
1000
MIN
1011
-437.1173639509103
1021
-331.6851417998334
1031
0.0
1000
MAX
1011
501.9750746995393
1021
273.7450370513435
1031
0.0
1000
FLAGS
1070
     4
1001
GENIUS_GENOBJ-N-SDF_13
1002
{
1000
OWNER
1000
GEN
1002
}
1001
GENIUS_GENODEF_13
1002
{
1000
HIER
1070
     0
1002
}
1002
{
1000
MANEDIT
1070
     0
1002
}
1002
{
1000
NOSEL
1070
     0
1002
}
1002
{
1000
BEHIND
1070
     0
1002
}
1002
{
1000
OTHER
1070
     0
1002
}
1002
{
1000
REACTOR
1002
}
  0
ENDSEC
  0
SECTION
  2
OBJECTS
  0
DICTIONARY
  5
324
330
0
100
AcDbDictionary
281
     1
  3
ACAD_CIP_PREVIOUS_PRODUCT_INFO
350
3EE
  3
ACAD_COLOR
350
37A
  3
ACAD_DETAILVIEWSTYLE
350
381
  3
ACAD_FIELDLIST
350
459
  3
ACAD_GROUP
350
325
  3
ACAD_LAYOUT
350
379
  3
ACAD_MATERIAL
350
328
  3
ACAD_MLEADERSTYLE
350
37D
  3
ACAD_MLINESTYLE
350
376
  3
ACAD_PLOTSETTINGS
350
378
  3
ACAD_PLOTSTYLENAME
350
326
  3
ACAD_SCALELIST
350
35A
  3
ACAD_SECTIONVIEWSTYLE
350
37F
  3
ACAD_TABLESTYLE
350
37B
  3
ACAD_VISUALSTYLE
350
341
  3
ACDB_RECOMPOSE_DATA
350
485
  3
AcDbVariableDictionary
350
479
  3
AcmDictionary
350
418
  3
AMG
350
3EF
  3
AMGSNAPSETTINGS
350
46E
  3
DWGPROPS
350
486
  0
DICTIONARY
  5
46F
330
36C
100
AcDbDictionary
280
     1
281
     1
  3
ADSK_XREC_LAYER_RECONCILED
360
470
  0
DICTIONARY
  5
471
330
3C0
100
AcDbDictionary
280
     1
281
     1
  3
ADSK_XREC_LAYER_RECONCILED
360
472
  0
DICTIONARY
  5
473
330
3C1
100
AcDbDictionary
280
     1
281
     1
  3
ADSK_XREC_LAYER_RECONCILED
360
474
  0
DICTIONARY
  5
475
330
3C2
100
AcDbDictionary
280
     1
281
     1
  3
ADSK_XREC_LAYER_RECONCILED
360
476
  0
DICTIONARY
  5
477
330
3C3
100
AcDbDictionary
280
     1
281
     1
  3
ADSK_XREC_LAYER_RECONCILED
360
478
  0
DICTIONARY
  5
487
330
78
100
AcDbDictionary
280
     1
281
     1
  3
ACAD_XREC_ROUNDTRIP
360
488
  0
XRECORD
  5
3EE
102
{ACAD_REACTORS
330
324
102
}
330
324
100
AcDbXrecord
280
     1
300
AMECH_PP
300
2016
300
AMECH_PP_F_S
  0
DICTIONARY
  5
37A
102
{ACAD_REACTORS
330
324
102
}
330
324
100
AcDbDictionary
281
     1
  0
DICTIONARY
  5
381
102
{ACAD_REACTORS
330
324
102
}
330
324
100
AcDbDictionary
281
     1
  3
Imperial24
350
382
  0
FIELDLIST
  5
459
102
{ACAD_REACTORS
330
324
102
}
330
324
100
AcDbIdSet
 90
        8
330
457
330
458
330
45A
330
45B
330
45F
330
460
330
461
330
462
100
AcDbFieldList
  0
DICTIONARY
  5
325
102
{ACAD_REACTORS
330
324
102
}
330
324
100
AcDbDictionary
281
     1
  0
DICTIONARY
  5
379
102
{ACAD_REACTORS
330
324
102
}
330
324
100
AcDbDictionary
281
     1
  3
Model
350
38A
  3
レイアウト1
350
386
  0
DICTIONARY
  5
328
102
{ACAD_REACTORS
330
324
102
}
330
324
100
AcDbDictionary
281
     1
  3
ByBlock
350
331
  3
ByLayer
350
329
  3
Global
350
339
  0
DICTIONARY
  5
37D
102
{ACAD_REACTORS
330
324
102
}
330
324
100
AcDbDictionary
281
     1
  3
Standard
350
37E
  0
DICTIONARY
  5
376
102
{ACAD_REACTORS
330
324
102
}
330
324
100
AcDbDictionary
281
     1
  3
Standard
350
377
  0
DICTIONARY
  5
378
102
{ACAD_REACTORS
330
324
102
}
330
324
100
AcDbDictionary
281
     1
  0
ACDBDICTIONARYWDFLT
  5
326
102
{ACAD_REACTORS
330
324
102
}
330
324
100
AcDbDictionary
281
     1
  3
Normal
350
327
100
AcDbDictionaryWithDefault
340
327
  0
DICTIONARY
  5
35A
102
{ACAD_REACTORS
330
324
102
}
330
324
100
AcDbDictionary
281
     1
  3
A0
350
35B
  3
A1
350
35C
  3
A2
350
35D
  3
A3
350
35E
  3
A4
350
35F
  3
A5
350
360
  3
A6
350
361
  3
A7
350
362
  3
A8
350
363
  3
A9
350
364
  3
B0
350
365
  3
B1
350
366
  3
B2
350
367
  3
B3
350
368
  3
B4
350
369
  3
B5
350
36A
  3
B6
350
36B
  0
DICTIONARY
  5
37F
102
{ACAD_REACTORS
330
324
102
}
330
324
100
AcDbDictionary
281
     1
  3
Imperial24
350
380
  0
DICTIONARY
  5
37B
102
{ACAD_REACTORS
330
324
102
}
330
324
100
AcDbDictionary
281
     1
  3
Standard
350
37C
  0
DICTIONARY
  5
341
102
{ACAD_REACTORS
330
324
102
}
330
324
100
AcDbDictionary
281
     1
  3
2dWireframe
350
347
  3
Basic
350
346
  3
Brighten
350
34D
  3
ColorChange
350
351
  3
Conceptual
350
34A
  3
Dim
350
34C
  3
EdgeColorOff
350
359
  3
Facepattern
350
350
  3
Flat
350
342
  3
FlatWithEdges
350
343
  3
Gouraud
350
344
  3
GouraudWithEdges
350
345
  3
Hidden
350
349
  3
JitterOff
350
357
  3
Linepattern
350
34F
  3
OverhangOff
350
358
  3
Realistic
350
34B
  3
Shaded
350
356
  3
Shaded with edges
350
355
  3
Shades of Gray
350
352
  3
Sketchy
350
353
  3
Thicken
350
34E
  3
Wireframe
350
348
  3
X-Ray
350
354
  0
XRECORD
  5
485
102
{ACAD_REACTORS
330
324
102
}
330
324
100
AcDbXrecord
280
     1
 90
        1
330
37C
  0
DICTIONARY
  5
479
102
{ACAD_REACTORS
330
324
102
}
330
324
100
AcDbDictionary
281
     1
  3
CANNOSCALE
350
47E
  3
CMLEADERSTYLE
350
47B
  3
CTABLESTYLE
350
47A
  3
CVIEWDETAILSTYLE
350
47C
  3
CVIEWSECTIONSTYLE
350
47D
  3
DIMASSOC
350
481
  3
INDEXCTL
350
480
  3
SORTENTS
350
47F
  3
XCLIPFRAME
350
482
  0
DICTIONARY
  5
418
102
{ACAD_REACTORS
330
324
102
}
330
324
100
AcDbDictionary
281
     1
  3
AcmStdDictionary
350
41F
  0
DICTIONARY
  5
3EF
102
{ACAD_REACTORS
330
324
102
}
330
324
100
AcDbDictionary
281
     1
  0
DICTIONARY
  5
46E
102
{ACAD_REACTORS
330
324
102
}
330
324
100
AcDbDictionary
281
     1
  0
XRECORD
  5
486
102
{ACAD_REACTORS
330
324
102
}
330
324
100
AcDbXrecord
280
     1
  1
DWGPROPS COOKIE
  2

  3

  4

  6

  7

  8
SW-06
  9

300
=
301
=
302
=
303
=
304
=
305
=
306
=
307
=
308
=
309
=
 40
0.0001065162037037
 41
2457457.490371713
 42
2457459.367019398
  1

 90
        0
  0
XRECORD
  5
470
102
{ACAD_REACTORS
330
46F
102
}
330
46F
100
AcDbXrecord
280
     1
290
     1
  0
XRECORD
  5
472
102
{ACAD_REACTORS
330
471
102
}
330
471
100
AcDbXrecord
280
     1
290
     1
  0
XRECORD
  5
474
102
{ACAD_REACTORS
330
473
102
}
330
473
100
AcDbXrecord
280
     1
290
     1
  0
XRECORD
  5
476
102
{ACAD_REACTORS
330
475
102
}
330
475
100
AcDbXrecord
280
     1
290
     1
  0
XRECORD
  5
478
102
{ACAD_REACTORS
330
477
102
}
330
477
100
AcDbXrecord
280
     1
290
     1
  0
XRECORD
  5
488
102
{ACAD_REACTORS
330
487
102
}
330
487
100
AcDbXrecord
280
     1
102
SHADEPLOT
 70
     0
  0
ACDBDETAILVIEWSTYLE
  5
382
102
{ACAD_XDICTIONARY
360
4C0
102
}
102
{ACAD_REACTORS
330
381
330
44A
102
}
330
381
100
AcDbModelDocViewStyle
 70
     0
  3
Imperial24
290
     0
100
AcDbDetailViewStyle
 70
     0
 71
     0
 90
        3
 71
     1
340
36D
 40
0.24
340
0
 40
0.24
300

 40
0.36
280
     3
 71
     2
340
374
 90
       25
 71
     3
340
36D
 40
0.24
 90
        1
 40
0.75
 90
        1
300
%<\AcVar ViewType \f "%tc1">% %<\AcVar ViewDetailId>%\PSCALE %<\AcVar ViewScale \f "%sn">%
 71
     4
340
374
 90
       25
340
374
 90
       25
280
     0
  0
LAYOUT
  5
38A
102
{ACAD_XDICTIONARY
360
4C4
102
}
102
{ACAD_REACTORS
330
379
102
}
330
379
100
AcDbPlotSettings
  1

  2
C:\Users\SW-06\appdata\roaming\autodesk\autocad mechanical 2016\r20.1\jpn\plotters\autocad pdf (general documentation).pc3
  4

  6

 40
0.0
 41
0.0
 42
0.0
 43
0.0
 44
0.0
 45
0.0
 46
0.0
 47
0.0
 48
0.0
 49
0.0
140
0.0
141
0.0
142
1.0
143
1.0
 70
  1712
 72
     0
 73
     0
 74
     0
  7
W400用印刷スタイル.ctb
 75
     0
147
1.0
148
0.0
149
0.0
100
AcDbLayout
  1
Model
 70
     1
 71
     0
 10
0.0
 20
0.0
 11
12.0
 21
9.0
 12
0.0
 22
0.0
 32
0.0
 14
0.0
 24
0.0
 34
0.0
 15
0.0
 25
0.0
 35
0.0
146
0.0
 13
0.0
 23
0.0
 33
0.0
 16
1.0
 26
0.0
 36
0.0
 17
0.0
 27
1.0
 37
0.0
 76
     0
330
387
331
38B
  0
LAYOUT
  5
386
102
{ACAD_XDICTIONARY
360
4C2
102
}
102
{ACAD_REACTORS
330
379
102
}
330
379
100
AcDbPlotSettings
  1

  2
C:\Users\SW-06\appdata\roaming\autodesk\autocad mechanical 2016\r20.1\jpn\plotters\autocad pdf (general documentation).pc3
  4

  6

 40
0.0
 41
0.0
 42
0.0
 43
0.0
 44
0.0
 45
0.0
 46
0.0
 47
0.0
 48
0.0
 49
0.0
140
0.0
141
0.0
142
1.0
143
1.0
 70
   688
 72
     0
 73
     0
 74
     5
  7
W400用印刷スタイル.ctb
 75
    16
147
1.0
148
0.0
149
0.0
100
AcDbLayout
  1
レイアウト1
 70
     0
 71
     1
 10
0.0
 20
0.0
 11
12.0
 21
9.0
 12
0.0
 22
0.0
 32
0.0
 14
1.000000000000000E+20
 24
1.000000000000000E+20
 34
1.000000000000000E+20
 15
-1.000000000000000E+20
 25
-1.000000000000000E+20
 35
-1.000000000000000E+20
146
0.0
 13
0.0
 23
0.0
 33
0.0
 16
1.0
 26
0.0
 36
0.0
 17
0.0
 27
1.0
 37
0.0
 76
     0
330
383
331
78
  0
MATERIAL
  5
331
102
{ACAD_XDICTIONARY
360
332
102
}
102
{ACAD_REACTORS
330
328
102
}
330
328
100
AcDbMaterial
  1
ByBlock
 72
     0
 43
0.0208333333333333
 43
0.0
 43
0.0
 43
0.0
 43
0.0
 43
0.0208333333333333
 43
0.0
 43
0.0
 43
0.0
 43
0.0
 43
1.0
 43
0.0
 43
0.0
 43
0.0
 43
0.0
 43
1.0
 77
     0
 47
0.0208333333333333
 47
0.0
 47
0.0
 47
0.0
 47
0.0
 47
0.0208333333333333
 47
0.0
 47
0.0
 47
0.0
 47
0.0
 47
1.0
 47
0.0
 47
0.0
 47
0.0
 47
0.0
 47
1.0
171
     0
 49
0.0208333333333333
 49
0.0
 49
0.0
 49
0.0
 49
0.0
 49
0.0208333333333333
 49
0.0
 49
0.0
 49
0.0
 49
0.0
 49
1.0
 49
0.0
 49
0.0
 49
0.0
 49
0.0
 49
1.0
175
     0
142
0.0208333333333333
142
0.0
142
0.0
142
0.0
142
0.0
142
0.0208333333333333
142
0.0
142
0.0
142
0.0
142
0.0
142
1.0
142
0.0
142
0.0
142
0.0
142
0.0
142
1.0
179
     0
144
0.0208333333333333
144
0.0
144
0.0
144
0.0
144
0.0
144
0.0208333333333333
144
0.0
144
0.0
144
0.0
144
0.0
144
1.0
144
0.0
144
0.0
144
0.0
144
0.0
144
1.0
147
0.0208333333333333
147
0.0
147
0.0
147
0.0
147
0.0
147
0.0208333333333333
147
0.0
147
0.0
147
0.0
147
0.0
147
1.0
147
0.0
147
0.0
147
0.0
147
0.0
147
1.0
  0
MATERIAL
  5
329
102
{ACAD_XDICTIONARY
360
32A
102
}
102
{ACAD_REACTORS
330
328
102
}
330
328
100
AcDbMaterial
  1
ByLayer
 72
     0
 43
0.0208333333333333
 43
0.0
 43
0.0
 43
0.0
 43
0.0
 43
0.0208333333333333
 43
0.0
 43
0.0
 43
0.0
 43
0.0
 43
1.0
 43
0.0
 43
0.0
 43
0.0
 43
0.0
 43
1.0
 77
     0
 47
0.0208333333333333
 47
0.0
 47
0.0
 47
0.0
 47
0.0
 47
0.0208333333333333
 47
0.0
 47
0.0
 47
0.0
 47
0.0
 47
1.0
 47
0.0
 47
0.0
 47
0.0
 47
0.0
 47
1.0
171
     0
 49
0.0208333333333333
 49
0.0
 49
0.0
 49
0.0
 49
0.0
 49
0.0208333333333333
 49
0.0
 49
0.0
 49
0.0
 49
0.0
 49
1.0
 49
0.0
 49
0.0
 49
0.0
 49
0.0
 49
1.0
175
     0
142
0.0208333333333333
142
0.0
142
0.0
142
0.0
142
0.0
142
0.0208333333333333
142
0.0
142
0.0
142
0.0
142
0.0
142
1.0
142
0.0
142
0.0
142
0.0
142
0.0
142
1.0
179
     0
144
0.0208333333333333
144
0.0
144
0.0
144
0.0
144
0.0
144
0.0208333333333333
144
0.0
144
0.0
144
0.0
144
0.0
144
1.0
144
0.0
144
0.0
144
0.0
144
0.0
144
1.0
147
0.0208333333333333
147
0.0
147
0.0
147
0.0
147
0.0
147
0.0208333333333333
147
0.0
147
0.0
147
0.0
147
0.0
147
1.0
147
0.0
147
0.0
147
0.0
147
0.0
147
1.0
  0
MATERIAL
  5
339
102
{ACAD_XDICTIONARY
360
33A
102
}
102
{ACAD_REACTORS
330
328
102
}
330
328
100
AcDbMaterial
  1
Global
 72
     0
 43
0.0208333333333333
 43
0.0
 43
0.0
 43
0.0
 43
0.0
 43
0.0208333333333333
 43
0.0
 43
0.0
 43
0.0
 43
0.0
 43
1.0
 43
0.0
 43
0.0
 43
0.0
 43
0.0
 43
1.0
 77
     0
 47
0.0208333333333333
 47
0.0
 47
0.0
 47
0.0
 47
0.0
 47
0.0208333333333333
 47
0.0
 47
0.0
 47
0.0
 47
0.0
 47
1.0
 47
0.0
 47
0.0
 47
0.0
 47
0.0
 47
1.0
171
     0
 49
0.0208333333333333
 49
0.0
 49
0.0
 49
0.0
 49
0.0
 49
0.0208333333333333
 49
0.0
 49
0.0
 49
0.0
 49
0.0
 49
1.0
 49
0.0
 49
0.0
 49
0.0
 49
0.0
 49
1.0
175
     0
142
0.0208333333333333
142
0.0
142
0.0
142
0.0
142
0.0
142
0.0208333333333333
142
0.0
142
0.0
142
0.0
142
0.0
142
1.0
142
0.0
142
0.0
142
0.0
142
0.0
142
1.0
179
     0
144
0.0208333333333333
144
0.0
144
0.0
144
0.0
144
0.0
144
0.0208333333333333
144
0.0
144
0.0
144
0.0
144
0.0
144
1.0
144
0.0
144
0.0
144
0.0
144
0.0
144
1.0
147
0.0208333333333333
147
0.0
147
0.0
147
0.0
147
0.0
147
0.0208333333333333
147
0.0
147
0.0
147
0.0
147
0.0
147
1.0
147
0.0
147
0.0
147
0.0
147
0.0
147
1.0
  0
MLEADERSTYLE
  5
37E
102
{ACAD_REACTORS
330
37D
102
}
330
37D
100
AcDbMLeaderStyle
170
     2
171
     1
172
     0
 90
        2
 40
0.0
 41
0.0
173
     1
 91
-1056964608
340
372
 92
       -2
290
     1
 42
0.09
291
     1
 43
0.36
  3
Standard
 44
0.18
300

342
36D
174
     1
178
     6
175
     1
176
     0
 93
-1056964608
 45
0.18
292
     0
297
     0
 46
0.18
 94
-1056964608
 47
1.0
 49
1.0
140
1.0
293
     1
141
0.0
294
     1
177
     0
142
1.0
295
     0
296
     0
143
0.125
1001
ACAD_MLEADERVER
1070
     2
  0
MLINESTYLE
  5
377
102
{ACAD_REACTORS
330
376
102
}
330
376
100
AcDbMlineStyle
  2
STANDARD
 70
     0
  3

 62
   256
 51
90.0
 52
90.0
 71
     2
 49
0.5
 62
   256
  6
BYLAYER
 49
-0.5
 62
   256
  6
BYLAYER
  0
ACDBPLACEHOLDER
  5
327
102
{ACAD_REACTORS
330
326
102
}
330
326
  0
SCALE
  5
35B
102
{ACAD_REACTORS
330
35A
102
}
330
35A
100
AcDbScale
 70
     0
300
1:1
140
1.0
141
1.0
290
     1
  0
SCALE
  5
35C
102
{ACAD_REACTORS
330
35A
102
}
330
35A
100
AcDbScale
 70
     0
300
1/128" = 1'-0"
140
0.0078125
141
12.0
290
     0
  0
SCALE
  5
35D
102
{ACAD_REACTORS
330
35A
102
}
330
35A
100
AcDbScale
 70
     0
300
1/64" = 1'-0"
140
0.015625
141
12.0
290
     0
  0
SCALE
  5
35E
102
{ACAD_REACTORS
330
35A
102
}
330
35A
100
AcDbScale
 70
     0
300
1/32" = 1'-0"
140
0.03125
141
12.0
290
     0
  0
SCALE
  5
35F
102
{ACAD_REACTORS
330
35A
102
}
330
35A
100
AcDbScale
 70
     0
300
1/16" = 1'-0"
140
0.0625
141
12.0
290
     0
  0
SCALE
  5
360
102
{ACAD_REACTORS
330
35A
102
}
330
35A
100
AcDbScale
 70
     0
300
3/32" = 1'-0"
140
0.09375
141
12.0
290
     0
  0
SCALE
  5
361
102
{ACAD_REACTORS
330
35A
102
}
330
35A
100
AcDbScale
 70
     0
300
1/8" = 1'-0"
140
0.125
141
12.0
290
     0
  0
SCALE
  5
362
102
{ACAD_REACTORS
330
35A
102
}
330
35A
100
AcDbScale
 70
     0
300
3/16" = 1'-0"
140
0.1875
141
12.0
290
     0
  0
SCALE
  5
363
102
{ACAD_REACTORS
330
35A
102
}
330
35A
100
AcDbScale
 70
     0
300
1/4" = 1'-0"
140
0.25
141
12.0
290
     0
  0
SCALE
  5
364
102
{ACAD_REACTORS
330
35A
102
}
330
35A
100
AcDbScale
 70
     0
300
3/8" = 1'-0"
140
0.375
141
12.0
290
     0
  0
SCALE
  5
365
102
{ACAD_REACTORS
330
35A
102
}
330
35A
100
AcDbScale
 70
     0
300
1/2" = 1'-0"
140
0.5
141
12.0
290
     0
  0
SCALE
  5
366
102
{ACAD_REACTORS
330
35A
102
}
330
35A
100
AcDbScale
 70
     0
300
3/4" = 1'-0"
140
0.75
141
12.0
290
     0
  0
SCALE
  5
367
102
{ACAD_REACTORS
330
35A
102
}
330
35A
100
AcDbScale
 70
     0
300
1" = 1'-0"
140
1.0
141
12.0
290
     0
  0
SCALE
  5
368
102
{ACAD_REACTORS
330
35A
102
}
330
35A
100
AcDbScale
 70
     0
300
1-1/2" = 1'-0"
140
1.5
141
12.0
290
     0
  0
SCALE
  5
369
102
{ACAD_REACTORS
330
35A
102
}
330
35A
100
AcDbScale
 70
     0
300
3" = 1'-0"
140
3.0
141
12.0
290
     0
  0
SCALE
  5
36A
102
{ACAD_REACTORS
330
35A
102
}
330
35A
100
AcDbScale
 70
     0
300
6" = 1'-0"
140
6.0
141
12.0
290
     0
  0
SCALE
  5
36B
102
{ACAD_REACTORS
330
35A
102
}
330
35A
100
AcDbScale
 70
     0
300
1'-0" = 1'-0"
140
12.0
141
12.0
290
     0
  0
ACDBSECTIONVIEWSTYLE
  5
380
102
{ACAD_XDICTIONARY
360
4BE
102
}
102
{ACAD_REACTORS
330
37F
330
449
102
}
330
37F
100
AcDbModelDocViewStyle
 70
     0
  3
Imperial24
290
     0
100
AcDbSectionViewStyle
 70
     0
 71
     0
 90
       78
 71
     1
340
36D
 40
0.24
340
0
340
0
 40
0.24
300
I, O, Q, S, X, Z
 40
0.48
 90
        3
 40
0.18
 90
        1
 71
     2
340
374
 90
       25
340
374
 90
       50
 40
0.24
 40
0.0
 40
0.24
 71
     3
340
36D
 40
0.24
 90
        1
 40
0.75
 90
        1
300
%<\AcVar ViewType \f "%tc1">% %<\AcVar ViewSectionStartId>%-%<\AcVar ViewSectionEndId>%\PSCALE %<\AcVar ViewScale \f "%sn">%
 71
     4
300
ANSI31
 40
1.0
 90
        0
290
     0
290
     0
 90
        6
 40
0.0
 40
1.570796326794896
 40
0.2617993877991494
 40
1.308996938995747
 40
-0.2617993877991494
 40
1.832595714594046
  0
TABLESTYLE
  5
37C
102
{ACAD_XDICTIONARY
360
483
102
}
102
{ACAD_REACTORS
330
37B
102
}
330
37B
100
AcDbTableStyle
  3
Standard
 70
     0
 71
     0
 40
0.06
 41
0.06
280
     0
281
     0
  7
STANDARD
140
0.18
170
     2
 62
     0
 63
     7
283
     0
274
    -2
284
     1
 64
     0
275
    -2
285
     1
 65
     0
276
    -2
286
     1
 66
     0
277
    -2
287
     1
 67
     0
278
    -2
288
     1
 68
     0
279
    -2
289
     1
 69
     0
  7
STANDARD
140
0.25
170
     5
 62
     0
 63
     7
283
     0
274
    -2
284
     1
 64
     0
275
    -2
285
     1
 65
     0
276
    -2
286
     1
 66
     0
277
    -2
287
     1
 67
     0
278
    -2
288
     1
 68
     0
279
    -2
289
     1
 69
     0
  7
STANDARD
140
0.18
170
     5
 62
     0
 63
     7
283
     0
274
    -2
284
     1
 64
     0
275
    -2
285
     1
 65
     0
276
    -2
286
     1
 66
     0
277
    -2
287
     1
 67
     0
278
    -2
288
     1
 68
     0
279
    -2
289
     1
 69
     0
  0
VISUALSTYLE
  5
347
102
{ACAD_XDICTIONARY
360
496
102
}
102
{ACAD_REACTORS
330
341
102
}
330
341
100
AcDbVisualStyle
  2
2dWireframe
 70
     4
 71
     0
 72
     2
 73
     0
 90
        0
 40
-0.6
 41
-30.0
 62
     5
 63
     7
 74
     1
 91
        4
 64
     7
 65
   257
 75
     1
175
     1
 42
1.0
 92
        0
 66
   257
 43
1.0
 76
     1
 77
     6
 78
     2
 67
     7
 79
     5
170
     0
171
     0
290
     0
174
     0
 93
        1
 44
0.0
173
     0
291
     0
 45
0.0
1001
ACAD
1000
AcDbSavedByObjectVersion
1070
     0
  0
VISUALSTYLE
  5
346
102
{ACAD_XDICTIONARY
360
494
102
}
102
{ACAD_REACTORS
330
341
102
}
330
341
100
AcDbVisualStyle
  2
Basic
 70
     7
 71
     1
 72
     0
 73
     1
 90
        0
 40
-0.6
 41
-30.0
 62
     5
 63
     7
 74
     0
 91
        4
 64
     7
 65
   257
 75
     1
175
     1
 42
1.0
 92
        8
 66
     7
 43
1.0
 76
     1
 77
     6
 78
     2
 67
     7
 79
     5
170
     0
171
     0
290
     0
174
     0
 93
        1
 44
0.0
173
     0
291
     1
 45
0.0
1001
ACAD
1000
AcDbSavedByObjectVersion
1070
     0
  0
VISUALSTYLE
  5
34D
102
{ACAD_XDICTIONARY
360
4A2
102
}
102
{ACAD_REACTORS
330
341
102
}
330
341
100
AcDbVisualStyle
  2
Brighten
 70
    12
 71
     2
 72
     2
 73
     0
 90
        0
 40
-0.6
 41
-30.0
 62
     5
 63
     7
 74
     1
 91
        4
 64
     7
 65
   257
 75
     1
175
     1
 42
1.0
 92
        8
 66
     7
 43
1.0
 76
     1
 77
     6
 78
     2
 67
     7
 79
     5
170
     0
171
     0
290
     0
174
     0
 93
        1
 44
50.0
173
     0
291
     1
 45
0.0
1001
ACAD
1000
AcDbSavedByObjectVersion
1070
     0
  0
VISUALSTYLE
  5
351
102
{ACAD_XDICTIONARY
360
4AA
102
}
102
{ACAD_REACTORS
330
341
102
}
330
341
100
AcDbVisualStyle
  2
ColorChange
 70
    16
 71
     2
 72
     2
 73
     3
 90
        0
 40
-0.6
 41
-30.0
 62
     5
 63
     8
 74
     1
 91
        4
 64
     7
 65
   257
 75
     1
175
     1
 42
1.0
 92
        8
 66
     8
 43
1.0
 76
     1
 77
     6
 78
     2
 67
     7
 79
     5
170
     0
171
     0
290
     0
174
     0
 93
        1
 44
0.0
173
     0
291
     1
 45
0.0
1001
ACAD
1000
AcDbSavedByObjectVersion
1070
     0
  0
VISUALSTYLE
  5
34A
102
{ACAD_XDICTIONARY
360
49C
102
}
102
{ACAD_REACTORS
330
341
102
}
330
341
100
AcDbVisualStyle
  2
Conceptual
 70
     9
 71
     3
 72
     2
 73
     0
 90
        0
 40
-0.6
 41
-30.0
 62
     5
 63
     7
 74
     2
 91
        2
 64
     7
 65
   257
 75
     1
175
     1
 42
179.0
 92
        8
 66
     7
 43
1.0
 76
     1
 77
     6
 78
     2
 67
     7
 79
     3
170
     0
171
     0
290
     0
174
     0
 93
        1
 44
0.0
173
     0
291
     0
 45
0.0
1001
ACAD
1000
AcDbSavedByObjectVersion
1070
     0
  0
VISUALSTYLE
  5
34C
102
{ACAD_XDICTIONARY
360
4A0
102
}
102
{ACAD_REACTORS
330
341
102
}
330
341
100
AcDbVisualStyle
  2
Dim
 70
    11
 71
     2
 72
     2
 73
     0
 90
        0
 40
-0.6
 41
-30.0
 62
     5
 63
     7
 74
     1
 91
        4
 64
     7
 65
   257
 75
     1
175
     1
 42
1.0
 92
        8
 66
     7
 43
1.0
 76
     1
 77
     6
 78
     2
 67
     7
 79
     5
170
     0
171
     0
290
     0
174
     0
 93
        1
 44
-50.0
173
     0
291
     1
 45
0.0
1001
ACAD
1000
AcDbSavedByObjectVersion
1070
     0
  0
VISUALSTYLE
  5
359
102
{ACAD_XDICTIONARY
360
4BA
102
}
102
{ACAD_REACTORS
330
341
102
}
330
341
100
AcDbVisualStyle
  2
EdgeColorOff
 70
    22
 71
     2
 72
     2
 73
     0
 90
        0
 40
-0.6
 41
-30.0
 62
     5
 63
     7
 74
     1
 91
        4
 64
     7
 65
   257
 75
     1
175
     1
 42
1.0
 92
        8
 66
     7
 43
1.0
 76
     1
 77
     6
 78
     2
 67
     7
 79
     5
170
     0
171
     0
290
     0
174
     0
 93
        1
 44
0.0
173
     0
291
     1
 45
0.0
1001
ACAD
1000
AcDbSavedByObjectVersion
1070
     0
  0
VISUALSTYLE
  5
350
102
{ACAD_XDICTIONARY
360
4A8
102
}
102
{ACAD_REACTORS
330
341
102
}
330
341
100
AcDbVisualStyle
  2
Facepattern
 70
    15
 71
     2
 72
     2
 73
     0
 90
        0
 40
-0.6
 41
-30.0
 62
     5
 63
     7
 74
     1
 91
        4
 64
     7
 65
   257
 75
     1
175
     1
 42
1.0
 92
        8
 66
     7
 43
1.0
 76
     1
 77
     6
 78
     2
 67
     7
 79
     5
170
     0
171
     0
290
     0
174
     0
 93
        1
 44
0.0
173
     0
291
     1
 45
0.0
1001
ACAD
1000
AcDbSavedByObjectVersion
1070
     0
  0
VISUALSTYLE
  5
342
102
{ACAD_XDICTIONARY
360
48C
102
}
102
{ACAD_REACTORS
330
341
102
}
330
341
100
AcDbVisualStyle
  2
Flat
 70
     0
 71
     2
 72
     1
 73
     1
 90
        2
 40
-0.6
 41
30.0
 62
     5
 63
     7
 74
     0
 91
        0
 64
     7
 65
   257
 75
     1
175
     1
 42
1.0
 92
        8
 66
     7
 43
1.0
 76
     1
 77
     6
 78
     2
 67
     7
 79
     5
170
     0
171
     0
290
     0
174
     0
 93
       13
 44
0.0
173
     0
291
     1
 45
0.0
1001
ACAD
1000
AcDbSavedByObjectVersion
1070
     0
  0
VISUALSTYLE
  5
343
102
{ACAD_XDICTIONARY
360
48E
102
}
102
{ACAD_REACTORS
330
341
102
}
330
341
100
AcDbVisualStyle
  2
FlatWithEdges
 70
     1
 71
     2
 72
     1
 73
     1
 90
        2
 40
-0.6
 41
30.0
 62
     5
 63
     7
 74
     1
 91
        0
 64
     7
 65
   257
 75
     1
175
     1
 42
1.0
 92
        0
 66
   257
 43
1.0
 76
     1
 77
     6
 78
     2
 67
     7
 79
     5
170
     0
171
     0
290
     0
174
     0
 93
       13
 44
0.0
173
     0
291
     1
 45
0.0
1001
ACAD
1000
AcDbSavedByObjectVersion
1070
     0
  0
VISUALSTYLE
  5
344
102
{ACAD_XDICTIONARY
360
490
102
}
102
{ACAD_REACTORS
330
341
102
}
330
341
100
AcDbVisualStyle
  2
Gouraud
 70
     2
 71
     2
 72
     2
 73
     1
 90
        2
 40
-0.6
 41
30.0
 62
     5
 63
     7
 74
     0
 91
        0
 64
     7
 65
   257
 75
     1
175
     1
 42
1.0
 92
        0
 66
     7
 43
1.0
 76
     1
 77
     6
 78
     2
 67
     7
 79
     5
170
     0
171
     0
290
     0
174
     0
 93
       13
 44
0.0
173
     0
291
     1
 45
0.0
1001
ACAD
1000
AcDbSavedByObjectVersion
1070
     0
  0
VISUALSTYLE
  5
345
102
{ACAD_XDICTIONARY
360
492
102
}
102
{ACAD_REACTORS
330
341
102
}
330
341
100
AcDbVisualStyle
  2
GouraudWithEdges
 70
     3
 71
     2
 72
     2
 73
     1
 90
        2
 40
-0.6
 41
30.0
 62
     5
 63
     7
 74
     1
 91
        0
 64
     7
 65
   257
 75
     1
175
     1
 42
1.0
 92
        0
 66
   257
 43
1.0
 76
     1
 77
     6
 78
     2
 67
     7
 79
     5
170
     0
171
     0
290
     0
174
     0
 93
       13
 44
0.0
173
     0
291
     1
 45
0.0
1001
ACAD
1000
AcDbSavedByObjectVersion
1070
     0
  0
VISUALSTYLE
  5
349
102
{ACAD_XDICTIONARY
360
49A
102
}
102
{ACAD_REACTORS
330
341
102
}
330
341
100
AcDbVisualStyle
  2
Hidden
 70
     6
 71
     1
 72
     2
 73
     2
 90
        0
 40
-0.6
 41
-30.0
 62
     5
 63
     7
 74
     2
 91
        2
 64
     7
 65
   257
 75
     2
175
     1
 42
40.0
 92
        0
 66
   257
 43
1.0
 76
     1
 77
     6
 78
     2
 67
     7
 79
     3
170
     0
171
     0
290
     0
174
     0
 93
        1
 44
0.0
173
     0
291
     0
 45
0.0
1001
ACAD
1000
AcDbSavedByObjectVersion
1070
     0
  0
VISUALSTYLE
  5
357
102
{ACAD_XDICTIONARY
360
4B6
102
}
102
{ACAD_REACTORS
330
341
102
}
330
341
100
AcDbVisualStyle
  2
JitterOff
 70
    20
 71
     2
 72
     2
 73
     0
 90
        0
 40
-0.6
 41
-30.0
 62
     5
 63
     7
 74
     1
 91
        4
 64
     7
 65
   257
 75
     1
175
     1
 42
1.0
 92
       10
 66
     7
 43
1.0
 76
     1
 77
     6
 78
     2
 67
     7
 79
     5
170
     0
171
     0
290
     0
174
     0
 93
        1
 44
0.0
173
     0
291
     1
 45
0.0
1001
ACAD
1000
AcDbSavedByObjectVersion
1070
     0
  0
VISUALSTYLE
  5
34F
102
{ACAD_XDICTIONARY
360
4A6
102
}
102
{ACAD_REACTORS
330
341
102
}
330
341
100
AcDbVisualStyle
  2
Linepattern
 70
    14
 71
     2
 72
     2
 73
     0
 90
        0
 40
-0.6
 41
-30.0
 62
     5
 63
     7
 74
     1
 91
        4
 64
     7
 65
   257
 75
     7
175
     7
 42
1.0
 92
        8
 66
     7
 43
1.0
 76
     1
 77
     6
 78
     2
 67
     7
 79
     5
170
     0
171
     0
290
     0
174
     0
 93
        1
 44
0.0
173
     0
291
     1
 45
0.0
1001
ACAD
1000
AcDbSavedByObjectVersion
1070
     0
  0
VISUALSTYLE
  5
358
102
{ACAD_XDICTIONARY
360
4B8
102
}
102
{ACAD_REACTORS
330
341
102
}
330
341
100
AcDbVisualStyle
  2
OverhangOff
 70
    21
 71
     2
 72
     2
 73
     0
 90
        0
 40
-0.6
 41
-30.0
 62
     5
 63
     7
 74
     1
 91
        4
 64
     7
 65
   257
 75
     1
175
     1
 42
1.0
 92
        9
 66
     7
 43
1.0
 76
     1
 77
     6
 78
     2
 67
     7
 79
     5
170
     0
171
     0
290
     0
174
     0
 93
        1
 44
0.0
173
     0
291
     1
 45
0.0
1001
ACAD
1000
AcDbSavedByObjectVersion
1070
     0
  0
VISUALSTYLE
  5
34B
102
{ACAD_XDICTIONARY
360
49E
102
}
102
{ACAD_REACTORS
330
341
102
}
330
341
100
AcDbVisualStyle
  2
Realistic
 70
     8
 71
     2
 72
     3
 73
     0
 90
        2
 40
-0.6
 41
30.0
 62
     5
 63
     7
 74
     0
 91
        0
 64
     7
 65
   257
 75
     1
175
     1
 42
1.0
 92
        8
 66
   257
 43
1.0
 76
     1
 77
     6
 78
     2
 67
     7
 79
     3
170
     0
171
     0
290
     0
174
     0
 93
       13
 44
0.0
173
     0
291
     0
 45
0.0
1001
ACAD
1000
AcDbSavedByObjectVersion
1070
     0
  0
VISUALSTYLE
  5
356
102
{ACAD_XDICTIONARY
360
4B4
102
}
102
{ACAD_REACTORS
330
341
102
}
330
341
100
AcDbVisualStyle
  2
Shaded
 70
    27
 71
     2
 72
     2
 73
     1
 90
        2
 40
-0.6
 41
30.0
 62
     5
 63
     7
 74
     0
 91
        4
 64
     7
 65
   257
 75
     1
175
     1
 42
1.0
 92
        8
 66
   257
 43
1.0
 76
     1
 77
     6
 78
     2
 67
     8
 79
     3
170
     0
171
     0
290
     0
174
     0
 93
        5
 44
0.0
173
     0
291
     0
 45
0.0
1001
ACAD
1000
AcDbSavedByObjectVersion
1070
     0
  0
VISUALSTYLE
  5
355
102
{ACAD_XDICTIONARY
360
4B2
102
}
102
{ACAD_REACTORS
330
341
102
}
330
341
100
AcDbVisualStyle
  2
Shaded with edges
 70
    26
 71
     2
 72
     2
 73
     1
 90
        2
 40
-0.6
 41
30.0
 62
     5
 63
     7
 74
     1
 91
       10
 64
     7
 65
   257
 75
     2
175
     1
 42
1.0
 92
        8
 66
   257
 43
1.0
 76
     1
 77
     6
 78
     2
 67
     7
 79
     3
170
     0
171
     0
290
     0
174
     0
 93
        5
 44
0.0
173
     0
291
     0
 45
0.0
1001
ACAD
1000
AcDbSavedByObjectVersion
1070
     0
  0
VISUALSTYLE
  5
352
102
{ACAD_XDICTIONARY
360
4AC
102
}
102
{ACAD_REACTORS
330
341
102
}
330
341
100
AcDbVisualStyle
  2
Shades of Gray
 70
    23
 71
     2
 72
     2
 73
     3
 90
        0
 40
-0.6
 41
-30.0
 62
     5
 63
     7
 74
     2
 91
        2
 64
     7
 65
     7
 75
     1
175
     1
 42
40.0
 92
        8
 66
     7
 43
1.0
 76
     1
 77
     6
 78
     2
 67
     7
 79
     3
170
     0
171
     0
290
     0
174
     0
 93
        1
 44
0.0
173
     0
291
     0
 45
0.0
1001
ACAD
1000
AcDbSavedByObjectVersion
1070
     0
  0
VISUALSTYLE
  5
353
102
{ACAD_XDICTIONARY
360
4AE
102
}
102
{ACAD_REACTORS
330
341
102
}
330
341
100
AcDbVisualStyle
  2
Sketchy
 70
    24
 71
     1
 72
     2
 73
     2
 90
        0
 40
-0.6
 41
-30.0
 62
     5
 63
     7
 74
     2
 91
        2
 64
     7
 65
     7
 75
     1
175
     1
 42
40.0
 92
       11
 66
     7
 43
1.0
 76
     1
 77
     6
 78
     2
 67
     7
 79
     6
170
     0
171
     0
290
     0
174
     0
 93
        1
 44
0.0
173
     0
291
     0
 45
0.0
1001
ACAD
1000
AcDbSavedByObjectVersion
1070
     0
  0
VISUALSTYLE
  5
34E
102
{ACAD_XDICTIONARY
360
4A4
102
}
102
{ACAD_REACTORS
330
341
102
}
330
341
100
AcDbVisualStyle
  2
Thicken
 70
    13
 71
     2
 72
     2
 73
     0
 90
        0
 40
-0.6
 41
-30.0
 62
     5
 63
     7
 74
     1
 91
        4
 64
     7
 65
   257
 75
     1
175
     1
 42
1.0
 92
       12
 66
     7
 43
1.0
 76
     1
 77
     6
 78
     2
 67
     7
 79
     5
170
     0
171
     0
290
     0
174
     0
 93
        1
 44
0.0
173
     0
291
     1
 45
0.0
1001
ACAD
1000
AcDbSavedByObjectVersion
1070
     0
  0
VISUALSTYLE
  5
348
102
{ACAD_XDICTIONARY
360
498
102
}
102
{ACAD_REACTORS
330
341
102
}
330
341
100
AcDbVisualStyle
  2
Wireframe
 70
     5
 71
     0
 72
     2
 73
     0
 90
        0
 40
-0.6
 41
-30.0
 62
     5
 63
     7
 74
     1
 91
        4
 64
     7
 65
   257
 75
     1
175
     1
 42
1.0
 92
        0
 66
   257
 43
1.0
 76
     1
 77
     6
 78
     2
 67
     7
 79
     3
170
     0
171
     0
290
     0
174
     0
 93
        1
 44
0.0
173
     0
291
     0
 45
0.0
1001
ACAD
1000
AcDbSavedByObjectVersion
1070
     0
  0
VISUALSTYLE
  5
354
102
{ACAD_XDICTIONARY
360
4B0
102
}
102
{ACAD_REACTORS
330
341
102
}
330
341
100
AcDbVisualStyle
  2
X-Ray
 70
    25
 71
     2
 72
     2
 73
     1
 90
        1
 40
0.5
 41
-30.0
 62
     5
 63
     7
 74
     1
 91
        0
 64
     7
 65
   257
 75
     1
175
     1
 42
1.0
 92
        8
 66
     7
 43
1.0
 76
     1
 77
     6
 78
     2
 67
     7
 79
     3
170
     0
171
     0
290
     0
174
     0
 93
       13
 44
0.0
173
     0
291
     0
 45
0.0
1001
ACAD
1000
AcDbSavedByObjectVersion
1070
     0
  0
DICTIONARYVAR
  5
47E
102
{ACAD_REACTORS
330
479
102
}
330
479
100
DictionaryVariables
280
     0
  1
1:1
  0
DICTIONARYVAR
  5
47B
102
{ACAD_REACTORS
330
479
102
}
330
479
100
DictionaryVariables
280
     0
  1
STANDARD
  0
DICTIONARYVAR
  5
47A
102
{ACAD_REACTORS
330
479
102
}
330
479
100
DictionaryVariables
280
     0
  1
STANDARD
  0
DICTIONARYVAR
  5
47C
102
{ACAD_REACTORS
330
479
102
}
330
479
100
DictionaryVariables
280
     0
  1
Imperial24
  0
DICTIONARYVAR
  5
47D
102
{ACAD_REACTORS
330
479
102
}
330
479
100
DictionaryVariables
280
     0
  1
Imperial24
  0
DICTIONARYVAR
  5
481
102
{ACAD_REACTORS
330
479
102
}
330
479
100
DictionaryVariables
280
     0
  1
1
  0
DICTIONARYVAR
  5
480
102
{ACAD_REACTORS
330
479
102
}
330
479
100
DictionaryVariables
280
     0
  1
0
  0
DICTIONARYVAR
  5
47F
102
{ACAD_REACTORS
330
479
102
}
330
479
100
DictionaryVariables
280
     0
  1
127
  0
DICTIONARYVAR
  5
482
102
{ACAD_REACTORS
330
479
102
}
330
479
100
DictionaryVariables
280
     0
  1
2
  0
DICTIONARY
  5
41F
102
{ACAD_REACTORS
330
418
102
}
330
418
100
AcDbDictionary
281
     1
  0
DICTIONARY
  5
4C0
330
382
100
AcDbDictionary
280
     1
281
     1
  3
ACAD_XREC_ROUNDTRIP
360
4C1
  0
DICTIONARY
  5
4C4
330
38A
100
AcDbDictionary
280
     1
281
     1
  3
ACAD_XREC_ROUNDTRIP
360
4C5
  0
DICTIONARY
  5
4C2
330
386
100
AcDbDictionary
280
     1
281
     1
  3
ACAD_XREC_ROUNDTRIP
360
4C3
  0
DICTIONARY
  5
332
330
331
100
AcDbDictionary
280
     1
281
     1
  3
ACAD_XREC_ROUNDTRIP
360
48A
  3
BUMPTILE
360
334
  3
DIFFUSETILE
360
333
  3
OPACITYTILE
360
337
  3
REFLECTIONTILE
360
336
  3
REFRACTIONTILE
360
338
  3
SPECULARTILE
360
335
  0
DICTIONARY
  5
32A
330
329
100
AcDbDictionary
280
     1
281
     1
  3
ACAD_XREC_ROUNDTRIP
360
489
  3
BUMPTILE
360
32C
  3
DIFFUSETILE
360
32B
  3
OPACITYTILE
360
32F
  3
REFLECTIONTILE
360
32E
  3
REFRACTIONTILE
360
330
  3
SPECULARTILE
360
32D
  0
DICTIONARY
  5
33A
330
339
100
AcDbDictionary
280
     1
281
     1
  3
ACAD_XREC_ROUNDTRIP
360
48B
  3
BUMPTILE
360
33C
  3
DIFFUSETILE
360
33B
  3
OPACITYTILE
360
33F
  3
REFLECTIONTILE
360
33E
  3
REFRACTIONTILE
360
340
  3
SPECULARTILE
360
33D
  0
DICTIONARY
  5
4BE
330
380
100
AcDbDictionary
280
     1
281
     1
  3
ACAD_XREC_ROUNDTRIP
360
4BF
  0
DICTIONARY
  5
483
330
37C
100
AcDbDictionary
280
     1
281
     1
  3
ACAD_ROUNDTRIP_2008_TABLESTYLE_CELLSTYLEMAP
360
484
  3
ACAD_XREC_ROUNDTRIP
360
4BC
  0
DICTIONARY
  5
496
330
347
100
AcDbDictionary
280
     1
281
     1
  3
ACAD_XREC_ROUNDTRIP
360
497
  0
DICTIONARY
  5
494
330
346
100
AcDbDictionary
280
     1
281
     1
  3
ACAD_XREC_ROUNDTRIP
360
495
  0
DICTIONARY
  5
4A2
330
34D
100
AcDbDictionary
280
     1
281
     1
  3
ACAD_XREC_ROUNDTRIP
360
4A3
  0
DICTIONARY
  5
4AA
330
351
100
AcDbDictionary
280
     1
281
     1
  3
ACAD_XREC_ROUNDTRIP
360
4AB
  0
DICTIONARY
  5
49C
330
34A
100
AcDbDictionary
280
     1
281
     1
  3
ACAD_XREC_ROUNDTRIP
360
49D
  0
DICTIONARY
  5
4A0
330
34C
100
AcDbDictionary
280
     1
281
     1
  3
ACAD_XREC_ROUNDTRIP
360
4A1
  0
DICTIONARY
  5
4BA
330
359
100
AcDbDictionary
280
     1
281
     1
  3
ACAD_XREC_ROUNDTRIP
360
4BB
  0
DICTIONARY
  5
4A8
330
350
100
AcDbDictionary
280
     1
281
     1
  3
ACAD_XREC_ROUNDTRIP
360
4A9
  0
DICTIONARY
  5
48C
330
342
100
AcDbDictionary
280
     1
281
     1
  3
ACAD_XREC_ROUNDTRIP
360
48D
  0
DICTIONARY
  5
48E
330
343
100
AcDbDictionary
280
     1
281
     1
  3
ACAD_XREC_ROUNDTRIP
360
48F
  0
DICTIONARY
  5
490
330
344
100
AcDbDictionary
280
     1
281
     1
  3
ACAD_XREC_ROUNDTRIP
360
491
  0
DICTIONARY
  5
492
330
345
100
AcDbDictionary
280
     1
281
     1
  3
ACAD_XREC_ROUNDTRIP
360
493
  0
DICTIONARY
  5
49A
330
349
100
AcDbDictionary
280
     1
281
     1
  3
ACAD_XREC_ROUNDTRIP
360
49B
  0
DICTIONARY
  5
4B6
330
357
100
AcDbDictionary
280
     1
281
     1
  3
ACAD_XREC_ROUNDTRIP
360
4B7
  0
DICTIONARY
  5
4A6
330
34F
100
AcDbDictionary
280
     1
281
     1
  3
ACAD_XREC_ROUNDTRIP
360
4A7
  0
DICTIONARY
  5
4B8
330
358
100
AcDbDictionary
280
     1
281
     1
  3
ACAD_XREC_ROUNDTRIP
360
4B9
  0
DICTIONARY
  5
49E
330
34B
100
AcDbDictionary
280
     1
281
     1
  3
ACAD_XREC_ROUNDTRIP
360
49F
  0
DICTIONARY
  5
4B4
330
356
100
AcDbDictionary
280
     1
281
     1
  3
ACAD_XREC_ROUNDTRIP
360
4B5
  0
DICTIONARY
  5
4B2
330
355
100
AcDbDictionary
280
     1
281
     1
  3
ACAD_XREC_ROUNDTRIP
360
4B3
  0
DICTIONARY
  5
4AC
330
352
100
AcDbDictionary
280
     1
281
     1
  3
ACAD_XREC_ROUNDTRIP
360
4AD
  0
DICTIONARY
  5
4AE
330
353
100
AcDbDictionary
280
     1
281
     1
  3
ACAD_XREC_ROUNDTRIP
360
4AF
  0
DICTIONARY
  5
4A4
330
34E
100
AcDbDictionary
280
     1
281
     1
  3
ACAD_XREC_ROUNDTRIP
360
4A5
  0
DICTIONARY
  5
498
330
348
100
AcDbDictionary
280
     1
281
     1
  3
ACAD_XREC_ROUNDTRIP
360
499
  0
DICTIONARY
  5
4B0
330
354
100
AcDbDictionary
280
     1
281
     1
  3
ACAD_XREC_ROUNDTRIP
360
4B1
  0
XRECORD
  5
4C1
102
{ACAD_REACTORS
330
4C0
102
}
330
4C0
100
AcDbXrecord
280
     1
102
DISPLAYNAME
  1
Imperial24
102
FLAGS
 90
        0
  0
XRECORD
  5
4C5
102
{ACAD_REACTORS
330
4C4
102
}
330
4C4
100
AcDbXrecord
280
     1
102
SHADEPLOT
 70
     0
102
SHADEPLOTRESLEVEL
 70
     2
102
SHADEPLOTCUSTOMDPI
 70
   300
  0
XRECORD
  5
4C3
102
{ACAD_REACTORS
330
4C2
102
}
330
4C2
100
AcDbXrecord
280
     1
102
SHADEPLOT
 70
     0
102
SHADEPLOTRESLEVEL
 70
     2
102
SHADEPLOTCUSTOMDPI
 70
   300
  0
XRECORD
  5
48A
102
{ACAD_REACTORS
330
332
102
}
330
332
100
AcDbXrecord
280
     1
102
MATERIAL
148
0.0
149
0.0
149
0.0
 93
        0
 94
      127
282
     0
 72
     0
 77
     0
171
     0
175
     0
179
     0
273
     0
  0
XRECORD
  5
334
102
{ACAD_REACTORS
330
332
102
}
330
332
100
AcDbXrecord
280
     1
270
     1
271
     1
  0
XRECORD
  5
333
102
{ACAD_REACTORS
330
332
102
}
330
332
100
AcDbXrecord
280
     1
270
     1
271
     1
  0
XRECORD
  5
337
102
{ACAD_REACTORS
330
332
102
}
330
332
100
AcDbXrecord
280
     1
270
     1
271
     1
  0
XRECORD
  5
336
102
{ACAD_REACTORS
330
332
102
}
330
332
100
AcDbXrecord
280
     1
270
     1
271
     1
  0
XRECORD
  5
338
102
{ACAD_REACTORS
330
332
102
}
330
332
100
AcDbXrecord
280
     1
270
     1
271
     1
  0
XRECORD
  5
335
102
{ACAD_REACTORS
330
332
102
}
330
332
100
AcDbXrecord
280
     1
270
     1
271
     1
  0
XRECORD
  5
489
102
{ACAD_REACTORS
330
32A
102
}
330
32A
100
AcDbXrecord
280
     1
102
MATERIAL
148
0.0
149
0.0
149
0.0
 93
        0
 94
      127
282
     0
 72
     0
 77
     0
171
     0
175
     0
179
     0
273
     0
  0
XRECORD
  5
32C
102
{ACAD_REACTORS
330
32A
102
}
330
32A
100
AcDbXrecord
280
     1
270
     1
271
     1
  0
XRECORD
  5
32B
102
{ACAD_REACTORS
330
32A
102
}
330
32A
100
AcDbXrecord
280
     1
270
     1
271
     1
  0
XRECORD
  5
32F
102
{ACAD_REACTORS
330
32A
102
}
330
32A
100
AcDbXrecord
280
     1
270
     1
271
     1
  0
XRECORD
  5
32E
102
{ACAD_REACTORS
330
32A
102
}
330
32A
100
AcDbXrecord
280
     1
270
     1
271
     1
  0
XRECORD
  5
330
102
{ACAD_REACTORS
330
32A
102
}
330
32A
100
AcDbXrecord
280
     1
270
     1
271
     1
  0
XRECORD
  5
32D
102
{ACAD_REACTORS
330
32A
102
}
330
32A
100
AcDbXrecord
280
     1
270
     1
271
     1
  0
XRECORD
  5
48B
102
{ACAD_REACTORS
330
33A
102
}
330
33A
100
AcDbXrecord
280
     1
102
MATERIAL
148
0.0
149
0.0
149
0.0
 93
        0
 94
      127
282
     0
 72
     0
 77
     0
171
     0
175
     0
179
     0
273
     0
  0
XRECORD
  5
33C
102
{ACAD_REACTORS
330
33A
102
}
330
33A
100
AcDbXrecord
280
     1
270
     1
271
     1
  0
XRECORD
  5
33B
102
{ACAD_REACTORS
330
33A
102
}
330
33A
100
AcDbXrecord
280
     1
270
     1
271
     1
  0
XRECORD
  5
33F
102
{ACAD_REACTORS
330
33A
102
}
330
33A
100
AcDbXrecord
280
     1
270
     1
271
     1
  0
XRECORD
  5
33E
102
{ACAD_REACTORS
330
33A
102
}
330
33A
100
AcDbXrecord
280
     1
270
     1
271
     1
  0
XRECORD
  5
340
102
{ACAD_REACTORS
330
33A
102
}
330
33A
100
AcDbXrecord
280
     1
270
     1
271
     1
  0
XRECORD
  5
33D
102
{ACAD_REACTORS
330
33A
102
}
330
33A
100
AcDbXrecord
280
     1
270
     1
271
     1
  0
XRECORD
  5
4BF
102
{ACAD_REACTORS
330
4BE
102
}
330
4BE
100
AcDbXrecord
280
     1
102
DISPLAYNAME
  1
Imperial24
102
FLAGS
 90
        0
  0
CELLSTYLEMAP
  5
484
102
{ACAD_REACTORS
330
483
102
}
330
483
100
AcDbCellStyleMap
 90
        3
300
CELLSTYLE
  1
TABLEFORMAT_BEGIN
 90
        5
170
     1
 91
        0
 92
    32768
 62
   257
 93
        1
300
CONTENTFORMAT
  1
CONTENTFORMAT_BEGIN
 90
        0
 91
        0
 92
      512
 93
        0
300

 40
0.0
140
1.0
 94
        5
 62
     0
340
36D
144
0.25
309
CONTENTFORMAT_END
171
     0
 94
        0
309
TABLEFORMAT_END
  1
CELLSTYLE_BEGIN
 90
        1
 91
        1
300
_TITLE
309
CELLSTYLE_END
300
CELLSTYLE
  1
TABLEFORMAT_BEGIN
 90
        5
170
     1
 91
        0
 92
        0
 62
   257
 93
        1
300
CONTENTFORMAT
  1
CONTENTFORMAT_BEGIN
 90
        0
 91
        0
 92
      512
 93
        0
300

 40
0.0
140
1.0
 94
        5
 62
     0
340
36D
144
0.18
309
CONTENTFORMAT_END
171
     0
 94
        0
309
TABLEFORMAT_END
  1
CELLSTYLE_BEGIN
 90
        2
 91
        1
300
_HEADER
309
CELLSTYLE_END
300
CELLSTYLE
  1
TABLEFORMAT_BEGIN
 90
        5
170
     1
 91
        0
 92
        0
 62
   257
 93
        1
300
CONTENTFORMAT
  1
CONTENTFORMAT_BEGIN
 90
        0
 91
        0
 92
      512
 93
        0
300

 40
0.0
140
1.0
 94
        2
 62
     0
340
36D
144
0.18
309
CONTENTFORMAT_END
171
     0
 94
        0
309
TABLEFORMAT_END
  1
CELLSTYLE_BEGIN
 90
        3
 91
        2
300
_DATA
309
CELLSTYLE_END
  0
XRECORD
  5
4BC
102
{ACAD_REACTORS
330
483
102
}
330
483
100
AcDbXrecord
280
     1
102
ACAD_ROUNDTRIP_PRE2007_TABLESTYLE
 90
      512
 91
        0
  1

 92
      512
 93
        0
  2

 94
      512
 95
        0
  3

  0
XRECORD
  5
497
102
{ACAD_REACTORS
330
496
102
}
330
496
100
AcDbXrecord
280
     1
102
RTVSPost2010Prop28
280
     1
102
RTVSPost2010PropOp28
 70
     1
102
RTVSPost2010Prop29
280
     1
102
RTVSPost2010PropOp29
 70
     1
102
RTVSPost2010Prop30
280
     0
102
RTVSPost2010PropOp30
 70
     1
102
RTVSPost2010Prop31
280
     0
102
RTVSPost2010PropOp31
 70
     1
102
RTVSPost2010Prop32
280
     0
102
RTVSPost2010PropOp32
 70
     1
102
RTVSPost2010Prop33
280
     0
102
RTVSPost2010PropOp33
 70
     1
102
RTVSPost2010Prop34
280
     0
102
RTVSPost2010PropOp34
 70
     1
102
RTVSPost2010Prop35
280
     0
102
RTVSPost2010PropOp35
 70
     1
102
RTVSPost2010Prop36
280
     0
102
RTVSPost2010PropOp36
 70
     1
102
RTVSPost2010Prop37
 90
       50
102
RTVSPost2010PropOp37
 70
     1
102
RTVSPost2010Prop38
140
0.0
102
RTVSPost2010PropOp38
 70
     1
102
RTVSPost2010Prop39
140
1.0
102
RTVSPost2010PropOp39
 70
     1
102
RTVSPost2010Prop40
 90
        0
102
RTVSPost2010PropOp40
 70
     1
102
RTVSPost2010Prop41ColorIndex
 90
       18
102
RTVSPost2010Prop41ColorRGB
 90
        0
102
RTVSPost2010PropOp41
 70
     1
102
RTVSPost2010Prop42
 90
       50
102
RTVSPost2010PropOp42
 70
     1
102
RTVSPost2010Prop43
 90
        3
102
RTVSPost2010PropOp43
 70
     1
102
RTVSPost2010Prop44ColorIndex
 90
        5
102
RTVSPost2010Prop44ColorRGB
 90
      255
102
RTVSPost2010PropOp44
 70
     1
102
RTVSPost2010Prop45
280
     0
102
RTVSPost2010PropOp45
 70
     1
102
RTVSPost2010Prop46
 90
       50
102
RTVSPost2010PropOp46
 70
     1
102
RTVSPost2010Prop47
 90
       50
102
RTVSPost2010PropOp47
 70
     1
102
RTVSPost2010Prop48
 90
       50
102
RTVSPost2010PropOp48
 70
     1
102
RTVSPost2010Prop49
280
     0
102
RTVSPost2010PropOp49
 70
     1
102
RTVSPost2010Prop50
 90
       50
102
RTVSPost2010PropOp50
 70
     1
102
RTVSPost2010Prop51ColorIndex
 90
      256
102
RTVSPost2010Prop51ColorRGB
 90
-16777216
102
RTVSPost2010PropOp51
 70
     0
102
RTVSPost2010Prop52
140
1.0
102
RTVSPost2010PropOp52
 70
     0
102
RTVSPost2010Prop53
 90
        2
102
RTVSPost2010PropOp53
 70
     1
102
RTVSPost2010Prop54
  1
strokes_ogs.tif
102
RTVSPost2010PropOp54
 70
     1
102
RTVSPost2010Prop55
280
     0
102
RTVSPost2010PropOp55
 70
     1
102
RTVSPost2010Prop56
140
1.0
102
RTVSPost2010PropOp56
 70
     1
102
RTVSPost2010Prop57
140
1.0
102
RTVSPost2010PropOp57
 70
     1
102
RTVSPropertyOp0
 70
     1
102
RTVSPropertyOp1
 70
     1
102
RTVSPropertyOp2
 70
     1
102
RTVSPropertyOp3
 70
     1
102
RTVSPropertyOp4
 70
     1
102
RTVSPropertyOp5
 70
     1
102
RTVSPropertyOp6
 70
     1
102
RTVSPropertyOp7
 70
     1
102
RTVSPropertyOp8
 70
     1
102
RTVSPropertyOp9
 70
     1
102
RTVSPropertyOp10
 70
     1
102
RTVSPropertyOp11
 70
     1
102
RTVSPropertyOp12
 70
     1
102
RTVSPropertyOp13
 70
     1
102
RTVSPropertyOp14
 70
     1
102
RTVSPropertyOp15
 70
     1
102
RTVSPropertyOp16
 70
     1
102
RTVSPropertyOp17
 70
     1
102
RTVSPropertyOp18
 70
     1
102
RTVSPropertyOp19
 70
     1
102
RTVSPropertyOp20
 70
     1
102
RTVSPropertyOp21
 70
     1
102
RTVSPropertyOp22
 70
     1
102
RTVSPropertyOp23
 70
     1
102
RTVSPropertyOp24
 70
     1
102
RTVSPropertyOp25
 70
     1
102
RTVSPropertyOp26
 70
     1
102
RTVSPropertyOp27
 70
     1
102
RTVSPropertyOp28
 70
     1
102
RTVSPropertyOp29
 70
     1
102
RTVSPropertyOp30
 70
     1
102
RTVSPropertyOp31
 70
     1
102
RTVSPropertyOp32
 70
     1
102
RTVSPropertyOp33
 70
     1
102
RTVSPropertyOp34
 70
     1
102
RTVSPropertyOp35
 70
     1
102
RTVSPropertyOp36
 70
     1
102
RTVSPropertyOp37
 70
     1
102
RTVSPropertyOp38
 70
     1
102
RTVSPropertyOp39
 70
     1
102
RTVSPropertyOp40
 70
     1
102
RTVSPropertyOp41
 70
     1
102
RTVSPropertyOp42
 70
     1
102
RTVSPropertyOp43
 70
     1
102
RTVSPropertyOp44
 70
     1
102
RTVSPropertyOp45
 70
     1
102
RTVSPropertyOp46
 70
     1
102
RTVSPropertyOp47
 70
     1
102
RTVSPropertyOp48
 70
     1
102
RTVSPropertyOp49
 70
     1
102
RTVSPropertyOp50
 70
     1
102
RTVSPropertyOp51
 70
     0
102
RTVSPropertyOp52
 70
     0
102
RTVSPropertyOp53
 70
     1
102
RTVSPropertyOp54
 70
     1
102
RTVSPropertyOp55
 70
     1
102
RTVSPropertyOp56
 70
     1
102
RTVSPropertyOp57
 70
     1
102
RTVSPropertyOp58
 70
     1
102
RTVSPropertyOp59
 70
     1
102
RTVSPropertyOp60
 70
     1
102
RTVSPropertyOp61
 70
     1
102
RTVSPropertyOp62
 70
     1
  0
XRECORD
  5
495
102
{ACAD_REACTORS
330
494
102
}
330
494
100
AcDbXrecord
280
     1
102
RTVSPost2010Prop28
280
     0
102
RTVSPost2010PropOp28
 70
     1
102
RTVSPost2010Prop29
280
     1
102
RTVSPost2010PropOp29
 70
     1
102
RTVSPost2010Prop30
280
     1
102
RTVSPost2010PropOp30
 70
     1
102
RTVSPost2010Prop31
280
     0
102
RTVSPost2010PropOp31
 70
     1
102
RTVSPost2010Prop32
280
     0
102
RTVSPost2010PropOp32
 70
     1
102
RTVSPost2010Prop33
280
     0
102
RTVSPost2010PropOp33
 70
     1
102
RTVSPost2010Prop34
280
     0
102
RTVSPost2010PropOp34
 70
     1
102
RTVSPost2010Prop35
280
     0
102
RTVSPost2010PropOp35
 70
     1
102
RTVSPost2010Prop36
280
     0
102
RTVSPost2010PropOp36
 70
     1
102
RTVSPost2010Prop37
 90
       50
102
RTVSPost2010PropOp37
 70
     1
102
RTVSPost2010Prop38
140
0.0
102
RTVSPost2010PropOp38
 70
     1
102
RTVSPost2010Prop39
140
1.0
102
RTVSPost2010PropOp39
 70
     1
102
RTVSPost2010Prop40
 90
        0
102
RTVSPost2010PropOp40
 70
     1
102
RTVSPost2010Prop41ColorIndex
 90
       18
102
RTVSPost2010Prop41ColorRGB
 90
        0
102
RTVSPost2010PropOp41
 70
     1
102
RTVSPost2010Prop42
 90
       50
102
RTVSPost2010PropOp42
 70
     1
102
RTVSPost2010Prop43
 90
        3
102
RTVSPost2010PropOp43
 70
     1
102
RTVSPost2010Prop44ColorIndex
 90
        5
102
RTVSPost2010Prop44ColorRGB
 90
      255
102
RTVSPost2010PropOp44
 70
     1
102
RTVSPost2010Prop45
280
     0
102
RTVSPost2010PropOp45
 70
     1
102
RTVSPost2010Prop46
 90
       50
102
RTVSPost2010PropOp46
 70
     1
102
RTVSPost2010Prop47
 90
       50
102
RTVSPost2010PropOp47
 70
     1
102
RTVSPost2010Prop48
 90
       50
102
RTVSPost2010PropOp48
 70
     1
102
RTVSPost2010Prop49
280
     0
102
RTVSPost2010PropOp49
 70
     1
102
RTVSPost2010Prop50
 90
       50
102
RTVSPost2010PropOp50
 70
     1
102
RTVSPost2010Prop51ColorIndex
 90
      256
102
RTVSPost2010Prop51ColorRGB
 90
-16777216
102
RTVSPost2010PropOp51
 70
     0
102
RTVSPost2010Prop52
140
1.0
102
RTVSPost2010PropOp52
 70
     0
102
RTVSPost2010Prop53
 90
        2
102
RTVSPost2010PropOp53
 70
     1
102
RTVSPost2010Prop54
  1
strokes_ogs.tif
102
RTVSPost2010PropOp54
 70
     1
102
RTVSPost2010Prop55
280
     0
102
RTVSPost2010PropOp55
 70
     1
102
RTVSPost2010Prop56
140
1.0
102
RTVSPost2010PropOp56
 70
     1
102
RTVSPost2010Prop57
140
1.0
102
RTVSPost2010PropOp57
 70
     1
102
RTVSPropertyOp0
 70
     1
102
RTVSPropertyOp1
 70
     1
102
RTVSPropertyOp2
 70
     1
102
RTVSPropertyOp3
 70
     1
102
RTVSPropertyOp4
 70
     1
102
RTVSPropertyOp5
 70
     1
102
RTVSPropertyOp6
 70
     1
102
RTVSPropertyOp7
 70
     1
102
RTVSPropertyOp8
 70
     1
102
RTVSPropertyOp9
 70
     1
102
RTVSPropertyOp10
 70
     1
102
RTVSPropertyOp11
 70
     1
102
RTVSPropertyOp12
 70
     1
102
RTVSPropertyOp13
 70
     1
102
RTVSPropertyOp14
 70
     1
102
RTVSPropertyOp15
 70
     1
102
RTVSPropertyOp16
 70
     1
102
RTVSPropertyOp17
 70
     1
102
RTVSPropertyOp18
 70
     1
102
RTVSPropertyOp19
 70
     1
102
RTVSPropertyOp20
 70
     1
102
RTVSPropertyOp21
 70
     1
102
RTVSPropertyOp22
 70
     1
102
RTVSPropertyOp23
 70
     1
102
RTVSPropertyOp24
 70
     1
102
RTVSPropertyOp25
 70
     1
102
RTVSPropertyOp26
 70
     1
102
RTVSPropertyOp27
 70
     1
102
RTVSPropertyOp28
 70
     1
102
RTVSPropertyOp29
 70
     1
102
RTVSPropertyOp30
 70
     1
102
RTVSPropertyOp31
 70
     1
102
RTVSPropertyOp32
 70
     1
102
RTVSPropertyOp33
 70
     1
102
RTVSPropertyOp34
 70
     1
102
RTVSPropertyOp35
 70
     1
102
RTVSPropertyOp36
 70
     1
102
RTVSPropertyOp37
 70
     1
102
RTVSPropertyOp38
 70
     1
102
RTVSPropertyOp39
 70
     1
102
RTVSPropertyOp40
 70
     1
102
RTVSPropertyOp41
 70
     1
102
RTVSPropertyOp42
 70
     1
102
RTVSPropertyOp43
 70
     1
102
RTVSPropertyOp44
 70
     1
102
RTVSPropertyOp45
 70
     1
102
RTVSPropertyOp46
 70
     1
102
RTVSPropertyOp47
 70
     1
102
RTVSPropertyOp48
 70
     1
102
RTVSPropertyOp49
 70
     1
102
RTVSPropertyOp50
 70
     1
102
RTVSPropertyOp51
 70
     0
102
RTVSPropertyOp52
 70
     0
102
RTVSPropertyOp53
 70
     1
102
RTVSPropertyOp54
 70
     1
102
RTVSPropertyOp55
 70
     1
102
RTVSPropertyOp56
 70
     1
102
RTVSPropertyOp57
 70
     1
102
RTVSPropertyOp58
 70
     1
102
RTVSPropertyOp59
 70
     1
102
RTVSPropertyOp60
 70
     1
102
RTVSPropertyOp61
 70
     1
102
RTVSPropertyOp62
 70
     1
  0
XRECORD
  5
4A3
102
{ACAD_REACTORS
330
4A2
102
}
330
4A2
100
AcDbXrecord
280
     1
102
RTVSPost2010Prop28
280
     0
102
RTVSPost2010PropOp28
 70
     1
102
RTVSPost2010Prop29
280
     1
102
RTVSPost2010PropOp29
 70
     1
102
RTVSPost2010Prop30
280
     1
102
RTVSPost2010PropOp30
 70
     1
102
RTVSPost2010Prop31
280
     0
102
RTVSPost2010PropOp31
 70
     1
102
RTVSPost2010Prop32
280
     0
102
RTVSPost2010PropOp32
 70
     1
102
RTVSPost2010Prop33
280
     0
102
RTVSPost2010PropOp33
 70
     1
102
RTVSPost2010Prop34
280
     0
102
RTVSPost2010PropOp34
 70
     1
102
RTVSPost2010Prop35
280
     0
102
RTVSPost2010PropOp35
 70
     1
102
RTVSPost2010Prop36
280
     0
102
RTVSPost2010PropOp36
 70
     1
102
RTVSPost2010Prop37
 90
       50
102
RTVSPost2010PropOp37
 70
     1
102
RTVSPost2010Prop38
140
0.0
102
RTVSPost2010PropOp38
 70
     1
102
RTVSPost2010Prop39
140
1.0
102
RTVSPost2010PropOp39
 70
     1
102
RTVSPost2010Prop40
 90
        0
102
RTVSPost2010PropOp40
 70
     1
102
RTVSPost2010Prop41ColorIndex
 90
       18
102
RTVSPost2010Prop41ColorRGB
 90
        0
102
RTVSPost2010PropOp41
 70
     1
102
RTVSPost2010Prop42
 90
       50
102
RTVSPost2010PropOp42
 70
     1
102
RTVSPost2010Prop43
 90
        3
102
RTVSPost2010PropOp43
 70
     1
102
RTVSPost2010Prop44ColorIndex
 90
        5
102
RTVSPost2010Prop44ColorRGB
 90
      255
102
RTVSPost2010PropOp44
 70
     1
102
RTVSPost2010Prop45
280
     0
102
RTVSPost2010PropOp45
 70
     1
102
RTVSPost2010Prop46
 90
       50
102
RTVSPost2010PropOp46
 70
     1
102
RTVSPost2010Prop47
 90
       50
102
RTVSPost2010PropOp47
 70
     1
102
RTVSPost2010Prop48
 90
       50
102
RTVSPost2010PropOp48
 70
     1
102
RTVSPost2010Prop49
280
     0
102
RTVSPost2010PropOp49
 70
     1
102
RTVSPost2010Prop50
 90
       50
102
RTVSPost2010PropOp50
 70
     1
102
RTVSPost2010Prop51ColorIndex
 90
      256
102
RTVSPost2010Prop51ColorRGB
 90
-16777216
102
RTVSPost2010PropOp51
 70
     0
102
RTVSPost2010Prop52
140
1.0
102
RTVSPost2010PropOp52
 70
     0
102
RTVSPost2010Prop53
 90
        2
102
RTVSPost2010PropOp53
 70
     1
102
RTVSPost2010Prop54
  1
strokes_ogs.tif
102
RTVSPost2010PropOp54
 70
     1
102
RTVSPost2010Prop55
280
     0
102
RTVSPost2010PropOp55
 70
     1
102
RTVSPost2010Prop56
140
1.0
102
RTVSPost2010PropOp56
 70
     1
102
RTVSPost2010Prop57
140
1.0
102
RTVSPost2010PropOp57
 70
     1
102
RTVSPropertyOp0
 70
     1
102
RTVSPropertyOp1
 70
     1
102
RTVSPropertyOp2
 70
     1
102
RTVSPropertyOp3
 70
     1
102
RTVSPropertyOp4
 70
     1
102
RTVSPropertyOp5
 70
     1
102
RTVSPropertyOp6
 70
     1
102
RTVSPropertyOp7
 70
     1
102
RTVSPropertyOp8
 70
     1
102
RTVSPropertyOp9
 70
     1
102
RTVSPropertyOp10
 70
     1
102
RTVSPropertyOp11
 70
     1
102
RTVSPropertyOp12
 70
     1
102
RTVSPropertyOp13
 70
     1
102
RTVSPropertyOp14
 70
     1
102
RTVSPropertyOp15
 70
     1
102
RTVSPropertyOp16
 70
     1
102
RTVSPropertyOp17
 70
     1
102
RTVSPropertyOp18
 70
     1
102
RTVSPropertyOp19
 70
     1
102
RTVSPropertyOp20
 70
     1
102
RTVSPropertyOp21
 70
     1
102
RTVSPropertyOp22
 70
     1
102
RTVSPropertyOp23
 70
     1
102
RTVSPropertyOp24
 70
     1
102
RTVSPropertyOp25
 70
     1
102
RTVSPropertyOp26
 70
     1
102
RTVSPropertyOp27
 70
     1
102
RTVSPropertyOp28
 70
     1
102
RTVSPropertyOp29
 70
     1
102
RTVSPropertyOp30
 70
     1
102
RTVSPropertyOp31
 70
     1
102
RTVSPropertyOp32
 70
     1
102
RTVSPropertyOp33
 70
     1
102
RTVSPropertyOp34
 70
     1
102
RTVSPropertyOp35
 70
     1
102
RTVSPropertyOp36
 70
     1
102
RTVSPropertyOp37
 70
     1
102
RTVSPropertyOp38
 70
     1
102
RTVSPropertyOp39
 70
     1
102
RTVSPropertyOp40
 70
     1
102
RTVSPropertyOp41
 70
     1
102
RTVSPropertyOp42
 70
     1
102
RTVSPropertyOp43
 70
     1
102
RTVSPropertyOp44
 70
     1
102
RTVSPropertyOp45
 70
     1
102
RTVSPropertyOp46
 70
     1
102
RTVSPropertyOp47
 70
     1
102
RTVSPropertyOp48
 70
     1
102
RTVSPropertyOp49
 70
     1
102
RTVSPropertyOp50
 70
     1
102
RTVSPropertyOp51
 70
     0
102
RTVSPropertyOp52
 70
     0
102
RTVSPropertyOp53
 70
     1
102
RTVSPropertyOp54
 70
     1
102
RTVSPropertyOp55
 70
     1
102
RTVSPropertyOp56
 70
     1
102
RTVSPropertyOp57
 70
     1
102
RTVSPropertyOp58
 70
     1
102
RTVSPropertyOp59
 70
     1
102
RTVSPropertyOp60
 70
     1
102
RTVSPropertyOp61
 70
     1
102
RTVSPropertyOp62
 70
     1
  0
XRECORD
  5
4AB
102
{ACAD_REACTORS
330
4AA
102
}
330
4AA
100
AcDbXrecord
280
     1
102
RTVSPost2010Prop28
280
     0
102
RTVSPost2010PropOp28
 70
     1
102
RTVSPost2010Prop29
280
     1
102
RTVSPost2010PropOp29
 70
     1
102
RTVSPost2010Prop30
280
     1
102
RTVSPost2010PropOp30
 70
     1
102
RTVSPost2010Prop31
280
     0
102
RTVSPost2010PropOp31
 70
     1
102
RTVSPost2010Prop32
280
     0
102
RTVSPost2010PropOp32
 70
     1
102
RTVSPost2010Prop33
280
     0
102
RTVSPost2010PropOp33
 70
     1
102
RTVSPost2010Prop34
280
     0
102
RTVSPost2010PropOp34
 70
     1
102
RTVSPost2010Prop35
280
     0
102
RTVSPost2010PropOp35
 70
     1
102
RTVSPost2010Prop36
280
     0
102
RTVSPost2010PropOp36
 70
     1
102
RTVSPost2010Prop37
 90
       50
102
RTVSPost2010PropOp37
 70
     1
102
RTVSPost2010Prop38
140
0.0
102
RTVSPost2010PropOp38
 70
     1
102
RTVSPost2010Prop39
140
1.0
102
RTVSPost2010PropOp39
 70
     1
102
RTVSPost2010Prop40
 90
        0
102
RTVSPost2010PropOp40
 70
     1
102
RTVSPost2010Prop41ColorIndex
 90
       18
102
RTVSPost2010Prop41ColorRGB
 90
        0
102
RTVSPost2010PropOp41
 70
     1
102
RTVSPost2010Prop42
 90
       50
102
RTVSPost2010PropOp42
 70
     1
102
RTVSPost2010Prop43
 90
        3
102
RTVSPost2010PropOp43
 70
     1
102
RTVSPost2010Prop44ColorIndex
 90
        5
102
RTVSPost2010Prop44ColorRGB
 90
      255
102
RTVSPost2010PropOp44
 70
     1
102
RTVSPost2010Prop45
280
     0
102
RTVSPost2010PropOp45
 70
     1
102
RTVSPost2010Prop46
 90
       50
102
RTVSPost2010PropOp46
 70
     1
102
RTVSPost2010Prop47
 90
       50
102
RTVSPost2010PropOp47
 70
     1
102
RTVSPost2010Prop48
 90
       50
102
RTVSPost2010PropOp48
 70
     1
102
RTVSPost2010Prop49
280
     0
102
RTVSPost2010PropOp49
 70
     1
102
RTVSPost2010Prop50
 90
       50
102
RTVSPost2010PropOp50
 70
     1
102
RTVSPost2010Prop51ColorIndex
 90
      256
102
RTVSPost2010Prop51ColorRGB
 90
-16777216
102
RTVSPost2010PropOp51
 70
     0
102
RTVSPost2010Prop52
140
1.0
102
RTVSPost2010PropOp52
 70
     0
102
RTVSPost2010Prop53
 90
        2
102
RTVSPost2010PropOp53
 70
     1
102
RTVSPost2010Prop54
  1
strokes_ogs.tif
102
RTVSPost2010PropOp54
 70
     1
102
RTVSPost2010Prop55
280
     0
102
RTVSPost2010PropOp55
 70
     1
102
RTVSPost2010Prop56
140
1.0
102
RTVSPost2010PropOp56
 70
     1
102
RTVSPost2010Prop57
140
1.0
102
RTVSPost2010PropOp57
 70
     1
102
RTVSPropertyOp0
 70
     1
102
RTVSPropertyOp1
 70
     1
102
RTVSPropertyOp2
 70
     1
102
RTVSPropertyOp3
 70
     1
102
RTVSPropertyOp4
 70
     1
102
RTVSPropertyOp5
 70
     1
102
RTVSPropertyOp6
 70
     1
102
RTVSPropertyOp7
 70
     1
102
RTVSPropertyOp8
 70
     1
102
RTVSPropertyOp9
 70
     1
102
RTVSPropertyOp10
 70
     1
102
RTVSPropertyOp11
 70
     1
102
RTVSPropertyOp12
 70
     1
102
RTVSPropertyOp13
 70
     1
102
RTVSPropertyOp14
 70
     1
102
RTVSPropertyOp15
 70
     1
102
RTVSPropertyOp16
 70
     1
102
RTVSPropertyOp17
 70
     1
102
RTVSPropertyOp18
 70
     1
102
RTVSPropertyOp19
 70
     1
102
RTVSPropertyOp20
 70
     1
102
RTVSPropertyOp21
 70
     1
102
RTVSPropertyOp22
 70
     1
102
RTVSPropertyOp23
 70
     1
102
RTVSPropertyOp24
 70
     1
102
RTVSPropertyOp25
 70
     1
102
RTVSPropertyOp26
 70
     1
102
RTVSPropertyOp27
 70
     1
102
RTVSPropertyOp28
 70
     1
102
RTVSPropertyOp29
 70
     1
102
RTVSPropertyOp30
 70
     1
102
RTVSPropertyOp31
 70
     1
102
RTVSPropertyOp32
 70
     1
102
RTVSPropertyOp33
 70
     1
102
RTVSPropertyOp34
 70
     1
102
RTVSPropertyOp35
 70
     1
102
RTVSPropertyOp36
 70
     1
102
RTVSPropertyOp37
 70
     1
102
RTVSPropertyOp38
 70
     1
102
RTVSPropertyOp39
 70
     1
102
RTVSPropertyOp40
 70
     1
102
RTVSPropertyOp41
 70
     1
102
RTVSPropertyOp42
 70
     1
102
RTVSPropertyOp43
 70
     1
102
RTVSPropertyOp44
 70
     1
102
RTVSPropertyOp45
 70
     1
102
RTVSPropertyOp46
 70
     1
102
RTVSPropertyOp47
 70
     1
102
RTVSPropertyOp48
 70
     1
102
RTVSPropertyOp49
 70
     1
102
RTVSPropertyOp50
 70
     1
102
RTVSPropertyOp51
 70
     0
102
RTVSPropertyOp52
 70
     0
102
RTVSPropertyOp53
 70
     1
102
RTVSPropertyOp54
 70
     1
102
RTVSPropertyOp55
 70
     1
102
RTVSPropertyOp56
 70
     1
102
RTVSPropertyOp57
 70
     1
102
RTVSPropertyOp58
 70
     1
102
RTVSPropertyOp59
 70
     1
102
RTVSPropertyOp60
 70
     1
102
RTVSPropertyOp61
 70
     1
102
RTVSPropertyOp62
 70
     1
  0
XRECORD
  5
49D
102
{ACAD_REACTORS
330
49C
102
}
330
49C
100
AcDbXrecord
280
     1
102
RTVSPost2010Prop28
280
     0
102
RTVSPost2010PropOp28
 70
     1
102
RTVSPost2010Prop29
280
     1
102
RTVSPost2010PropOp29
 70
     1
102
RTVSPost2010Prop30
280
     1
102
RTVSPost2010PropOp30
 70
     1
102
RTVSPost2010Prop31
280
     0
102
RTVSPost2010PropOp31
 70
     1
102
RTVSPost2010Prop32
280
     0
102
RTVSPost2010PropOp32
 70
     1
102
RTVSPost2010Prop33
280
     0
102
RTVSPost2010PropOp33
 70
     1
102
RTVSPost2010Prop34
280
     0
102
RTVSPost2010PropOp34
 70
     1
102
RTVSPost2010Prop35
280
     0
102
RTVSPost2010PropOp35
 70
     1
102
RTVSPost2010Prop36
280
     0
102
RTVSPost2010PropOp36
 70
     1
102
RTVSPost2010Prop37
 90
       50
102
RTVSPost2010PropOp37
 70
     1
102
RTVSPost2010Prop38
140
0.0
102
RTVSPost2010PropOp38
 70
     1
102
RTVSPost2010Prop39
140
1.0
102
RTVSPost2010PropOp39
 70
     1
102
RTVSPost2010Prop40
 90
        0
102
RTVSPost2010PropOp40
 70
     1
102
RTVSPost2010Prop41ColorIndex
 90
       18
102
RTVSPost2010Prop41ColorRGB
 90
        0
102
RTVSPost2010PropOp41
 70
     1
102
RTVSPost2010Prop42
 90
       50
102
RTVSPost2010PropOp42
 70
     1
102
RTVSPost2010Prop43
 90
        3
102
RTVSPost2010PropOp43
 70
     1
102
RTVSPost2010Prop44ColorIndex
 90
        5
102
RTVSPost2010Prop44ColorRGB
 90
      255
102
RTVSPost2010PropOp44
 70
     1
102
RTVSPost2010Prop45
280
     0
102
RTVSPost2010PropOp45
 70
     1
102
RTVSPost2010Prop46
 90
       50
102
RTVSPost2010PropOp46
 70
     1
102
RTVSPost2010Prop47
 90
       50
102
RTVSPost2010PropOp47
 70
     1
102
RTVSPost2010Prop48
 90
       50
102
RTVSPost2010PropOp48
 70
     1
102
RTVSPost2010Prop49
280
     0
102
RTVSPost2010PropOp49
 70
     1
102
RTVSPost2010Prop50
 90
       50
102
RTVSPost2010PropOp50
 70
     1
102
RTVSPost2010Prop51ColorIndex
 90
      256
102
RTVSPost2010Prop51ColorRGB
 90
-16777216
102
RTVSPost2010PropOp51
 70
     0
102
RTVSPost2010Prop52
140
1.0
102
RTVSPost2010PropOp52
 70
     0
102
RTVSPost2010Prop53
 90
        2
102
RTVSPost2010PropOp53
 70
     1
102
RTVSPost2010Prop54
  1
strokes_ogs.tif
102
RTVSPost2010PropOp54
 70
     1
102
RTVSPost2010Prop55
280
     0
102
RTVSPost2010PropOp55
 70
     1
102
RTVSPost2010Prop56
140
1.0
102
RTVSPost2010PropOp56
 70
     1
102
RTVSPost2010Prop57
140
1.0
102
RTVSPost2010PropOp57
 70
     1
102
RTVSPropertyOp0
 70
     1
102
RTVSPropertyOp1
 70
     1
102
RTVSPropertyOp2
 70
     1
102
RTVSPropertyOp3
 70
     1
102
RTVSPropertyOp4
 70
     1
102
RTVSPropertyOp5
 70
     1
102
RTVSPropertyOp6
 70
     1
102
RTVSPropertyOp7
 70
     1
102
RTVSPropertyOp8
 70
     1
102
RTVSPropertyOp9
 70
     1
102
RTVSPropertyOp10
 70
     1
102
RTVSPropertyOp11
 70
     1
102
RTVSPropertyOp12
 70
     1
102
RTVSPropertyOp13
 70
     1
102
RTVSPropertyOp14
 70
     1
102
RTVSPropertyOp15
 70
     1
102
RTVSPropertyOp16
 70
     1
102
RTVSPropertyOp17
 70
     1
102
RTVSPropertyOp18
 70
     1
102
RTVSPropertyOp19
 70
     1
102
RTVSPropertyOp20
 70
     1
102
RTVSPropertyOp21
 70
     1
102
RTVSPropertyOp22
 70
     1
102
RTVSPropertyOp23
 70
     1
102
RTVSPropertyOp24
 70
     1
102
RTVSPropertyOp25
 70
     1
102
RTVSPropertyOp26
 70
     1
102
RTVSPropertyOp27
 70
     1
102
RTVSPropertyOp28
 70
     1
102
RTVSPropertyOp29
 70
     1
102
RTVSPropertyOp30
 70
     1
102
RTVSPropertyOp31
 70
     1
102
RTVSPropertyOp32
 70
     1
102
RTVSPropertyOp33
 70
     1
102
RTVSPropertyOp34
 70
     1
102
RTVSPropertyOp35
 70
     1
102
RTVSPropertyOp36
 70
     1
102
RTVSPropertyOp37
 70
     1
102
RTVSPropertyOp38
 70
     1
102
RTVSPropertyOp39
 70
     1
102
RTVSPropertyOp40
 70
     1
102
RTVSPropertyOp41
 70
     1
102
RTVSPropertyOp42
 70
     1
102
RTVSPropertyOp43
 70
     1
102
RTVSPropertyOp44
 70
     1
102
RTVSPropertyOp45
 70
     1
102
RTVSPropertyOp46
 70
     1
102
RTVSPropertyOp47
 70
     1
102
RTVSPropertyOp48
 70
     1
102
RTVSPropertyOp49
 70
     1
102
RTVSPropertyOp50
 70
     1
102
RTVSPropertyOp51
 70
     0
102
RTVSPropertyOp52
 70
     0
102
RTVSPropertyOp53
 70
     1
102
RTVSPropertyOp54
 70
     1
102
RTVSPropertyOp55
 70
     1
102
RTVSPropertyOp56
 70
     1
102
RTVSPropertyOp57
 70
     1
102
RTVSPropertyOp58
 70
     1
102
RTVSPropertyOp59
 70
     1
102
RTVSPropertyOp60
 70
     1
102
RTVSPropertyOp61
 70
     1
102
RTVSPropertyOp62
 70
     1
  0
XRECORD
  5
4A1
102
{ACAD_REACTORS
330
4A0
102
}
330
4A0
100
AcDbXrecord
280
     1
102
RTVSPost2010Prop28
280
     0
102
RTVSPost2010PropOp28
 70
     1
102
RTVSPost2010Prop29
280
     1
102
RTVSPost2010PropOp29
 70
     1
102
RTVSPost2010Prop30
280
     1
102
RTVSPost2010PropOp30
 70
     1
102
RTVSPost2010Prop31
280
     0
102
RTVSPost2010PropOp31
 70
     1
102
RTVSPost2010Prop32
280
     0
102
RTVSPost2010PropOp32
 70
     1
102
RTVSPost2010Prop33
280
     0
102
RTVSPost2010PropOp33
 70
     1
102
RTVSPost2010Prop34
280
     0
102
RTVSPost2010PropOp34
 70
     1
102
RTVSPost2010Prop35
280
     0
102
RTVSPost2010PropOp35
 70
     1
102
RTVSPost2010Prop36
280
     0
102
RTVSPost2010PropOp36
 70
     1
102
RTVSPost2010Prop37
 90
       50
102
RTVSPost2010PropOp37
 70
     1
102
RTVSPost2010Prop38
140
0.0
102
RTVSPost2010PropOp38
 70
     1
102
RTVSPost2010Prop39
140
1.0
102
RTVSPost2010PropOp39
 70
     1
102
RTVSPost2010Prop40
 90
        0
102
RTVSPost2010PropOp40
 70
     1
102
RTVSPost2010Prop41ColorIndex
 90
       18
102
RTVSPost2010Prop41ColorRGB
 90
        0
102
RTVSPost2010PropOp41
 70
     1
102
RTVSPost2010Prop42
 90
       50
102
RTVSPost2010PropOp42
 70
     1
102
RTVSPost2010Prop43
 90
        3
102
RTVSPost2010PropOp43
 70
     1
102
RTVSPost2010Prop44ColorIndex
 90
        5
102
RTVSPost2010Prop44ColorRGB
 90
      255
102
RTVSPost2010PropOp44
 70
     1
102
RTVSPost2010Prop45
280
     0
102
RTVSPost2010PropOp45
 70
     1
102
RTVSPost2010Prop46
 90
       50
102
RTVSPost2010PropOp46
 70
     1
102
RTVSPost2010Prop47
 90
       50
102
RTVSPost2010PropOp47
 70
     1
102
RTVSPost2010Prop48
 90
       50
102
RTVSPost2010PropOp48
 70
     1
102
RTVSPost2010Prop49
280
     0
102
RTVSPost2010PropOp49
 70
     1
102
RTVSPost2010Prop50
 90
       50
102
RTVSPost2010PropOp50
 70
     1
102
RTVSPost2010Prop51ColorIndex
 90
      256
102
RTVSPost2010Prop51ColorRGB
 90
-16777216
102
RTVSPost2010PropOp51
 70
     0
102
RTVSPost2010Prop52
140
1.0
102
RTVSPost2010PropOp52
 70
     0
102
RTVSPost2010Prop53
 90
        2
102
RTVSPost2010PropOp53
 70
     1
102
RTVSPost2010Prop54
  1
strokes_ogs.tif
102
RTVSPost2010PropOp54
 70
     1
102
RTVSPost2010Prop55
280
     0
102
RTVSPost2010PropOp55
 70
     1
102
RTVSPost2010Prop56
140
1.0
102
RTVSPost2010PropOp56
 70
     1
102
RTVSPost2010Prop57
140
1.0
102
RTVSPost2010PropOp57
 70
     1
102
RTVSPropertyOp0
 70
     1
102
RTVSPropertyOp1
 70
     1
102
RTVSPropertyOp2
 70
     1
102
RTVSPropertyOp3
 70
     1
102
RTVSPropertyOp4
 70
     1
102
RTVSPropertyOp5
 70
     1
102
RTVSPropertyOp6
 70
     1
102
RTVSPropertyOp7
 70
     1
102
RTVSPropertyOp8
 70
     1
102
RTVSPropertyOp9
 70
     1
102
RTVSPropertyOp10
 70
     1
102
RTVSPropertyOp11
 70
     1
102
RTVSPropertyOp12
 70
     1
102
RTVSPropertyOp13
 70
     1
102
RTVSPropertyOp14
 70
     1
102
RTVSPropertyOp15
 70
     1
102
RTVSPropertyOp16
 70
     1
102
RTVSPropertyOp17
 70
     1
102
RTVSPropertyOp18
 70
     1
102
RTVSPropertyOp19
 70
     1
102
RTVSPropertyOp20
 70
     1
102
RTVSPropertyOp21
 70
     1
102
RTVSPropertyOp22
 70
     1
102
RTVSPropertyOp23
 70
     1
102
RTVSPropertyOp24
 70
     1
102
RTVSPropertyOp25
 70
     1
102
RTVSPropertyOp26
 70
     1
102
RTVSPropertyOp27
 70
     1
102
RTVSPropertyOp28
 70
     1
102
RTVSPropertyOp29
 70
     1
102
RTVSPropertyOp30
 70
     1
102
RTVSPropertyOp31
 70
     1
102
RTVSPropertyOp32
 70
     1
102
RTVSPropertyOp33
 70
     1
102
RTVSPropertyOp34
 70
     1
102
RTVSPropertyOp35
 70
     1
102
RTVSPropertyOp36
 70
     1
102
RTVSPropertyOp37
 70
     1
102
RTVSPropertyOp38
 70
     1
102
RTVSPropertyOp39
 70
     1
102
RTVSPropertyOp40
 70
     1
102
RTVSPropertyOp41
 70
     1
102
RTVSPropertyOp42
 70
     1
102
RTVSPropertyOp43
 70
     1
102
RTVSPropertyOp44
 70
     1
102
RTVSPropertyOp45
 70
     1
102
RTVSPropertyOp46
 70
     1
102
RTVSPropertyOp47
 70
     1
102
RTVSPropertyOp48
 70
     1
102
RTVSPropertyOp49
 70
     1
102
RTVSPropertyOp50
 70
     1
102
RTVSPropertyOp51
 70
     0
102
RTVSPropertyOp52
 70
     0
102
RTVSPropertyOp53
 70
     1
102
RTVSPropertyOp54
 70
     1
102
RTVSPropertyOp55
 70
     1
102
RTVSPropertyOp56
 70
     1
102
RTVSPropertyOp57
 70
     1
102
RTVSPropertyOp58
 70
     1
102
RTVSPropertyOp59
 70
     1
102
RTVSPropertyOp60
 70
     1
102
RTVSPropertyOp61
 70
     1
102
RTVSPropertyOp62
 70
     1
  0
XRECORD
  5
4BB
102
{ACAD_REACTORS
330
4BA
102
}
330
4BA
100
AcDbXrecord
280
     1
102
RTVSPost2010Prop28
280
     0
102
RTVSPost2010PropOp28
 70
     1
102
RTVSPost2010Prop29
280
     1
102
RTVSPost2010PropOp29
 70
     1
102
RTVSPost2010Prop30
280
     1
102
RTVSPost2010PropOp30
 70
     1
102
RTVSPost2010Prop31
280
     0
102
RTVSPost2010PropOp31
 70
     1
102
RTVSPost2010Prop32
280
     0
102
RTVSPost2010PropOp32
 70
     1
102
RTVSPost2010Prop33
280
     0
102
RTVSPost2010PropOp33
 70
     1
102
RTVSPost2010Prop34
280
     0
102
RTVSPost2010PropOp34
 70
     1
102
RTVSPost2010Prop35
280
     0
102
RTVSPost2010PropOp35
 70
     1
102
RTVSPost2010Prop36
280
     0
102
RTVSPost2010PropOp36
 70
     1
102
RTVSPost2010Prop37
 90
       50
102
RTVSPost2010PropOp37
 70
     0
102
RTVSPost2010Prop38
140
0.0
102
RTVSPost2010PropOp38
 70
     0
102
RTVSPost2010Prop39
140
1.0
102
RTVSPost2010PropOp39
 70
     0
102
RTVSPost2010Prop40
 90
        0
102
RTVSPost2010PropOp40
 70
     0
102
RTVSPost2010Prop41ColorIndex
 90
       18
102
RTVSPost2010Prop41ColorRGB
 90
        0
102
RTVSPost2010PropOp41
 70
     0
102
RTVSPost2010Prop42
 90
       50
102
RTVSPost2010PropOp42
 70
     0
102
RTVSPost2010Prop43
 90
        3
102
RTVSPost2010PropOp43
 70
     0
102
RTVSPost2010Prop44ColorIndex
 90
        5
102
RTVSPost2010Prop44ColorRGB
 90
      255
102
RTVSPost2010PropOp44
 70
     0
102
RTVSPost2010Prop45
280
     0
102
RTVSPost2010PropOp45
 70
     1
102
RTVSPost2010Prop46
 90
       50
102
RTVSPost2010PropOp46
 70
     0
102
RTVSPost2010Prop47
 90
       50
102
RTVSPost2010PropOp47
 70
     0
102
RTVSPost2010Prop48
 90
       50
102
RTVSPost2010PropOp48
 70
     0
102
RTVSPost2010Prop49
280
     0
102
RTVSPost2010PropOp49
 70
     1
102
RTVSPost2010Prop50
 90
       50
102
RTVSPost2010PropOp50
 70
     0
102
RTVSPost2010Prop51ColorIndex
 90
      256
102
RTVSPost2010Prop51ColorRGB
 90
-16777216
102
RTVSPost2010PropOp51
 70
     0
102
RTVSPost2010Prop52
140
1.0
102
RTVSPost2010PropOp52
 70
     0
102
RTVSPost2010Prop53
 90
        2
102
RTVSPost2010PropOp53
 70
     0
102
RTVSPost2010Prop54
  1
strokes_ogs.tif
102
RTVSPost2010PropOp54
 70
     0
102
RTVSPost2010Prop55
280
     0
102
RTVSPost2010PropOp55
 70
     1
102
RTVSPost2010Prop56
140
1.0
102
RTVSPost2010PropOp56
 70
     0
102
RTVSPost2010Prop57
140
1.0
102
RTVSPost2010PropOp57
 70
     0
102
RTVSPropertyOp0
 70
     0
102
RTVSPropertyOp1
 70
     0
102
RTVSPropertyOp2
 70
     0
102
RTVSPropertyOp3
 70
     0
102
RTVSPropertyOp4
 70
     0
102
RTVSPropertyOp5
 70
     0
102
RTVSPropertyOp6
 70
     0
102
RTVSPropertyOp7
 70
     0
102
RTVSPropertyOp8
 70
     0
102
RTVSPropertyOp9
 70
     0
102
RTVSPropertyOp10
 70
     0
102
RTVSPropertyOp11
 70
     0
102
RTVSPropertyOp12
 70
     0
102
RTVSPropertyOp13
 70
     0
102
RTVSPropertyOp14
 70
     2
102
RTVSPropertyOp15
 70
     0
102
RTVSPropertyOp16
 70
     0
102
RTVSPropertyOp17
 70
     0
102
RTVSPropertyOp18
 70
     0
102
RTVSPropertyOp19
 70
     0
102
RTVSPropertyOp20
 70
     0
102
RTVSPropertyOp21
 70
     0
102
RTVSPropertyOp22
 70
     0
102
RTVSPropertyOp23
 70
     0
102
RTVSPropertyOp24
 70
     0
102
RTVSPropertyOp25
 70
     0
102
RTVSPropertyOp26
 70
     0
102
RTVSPropertyOp27
 70
     0
102
RTVSPropertyOp28
 70
     1
102
RTVSPropertyOp29
 70
     1
102
RTVSPropertyOp30
 70
     1
102
RTVSPropertyOp31
 70
     1
102
RTVSPropertyOp32
 70
     1
102
RTVSPropertyOp33
 70
     1
102
RTVSPropertyOp34
 70
     1
102
RTVSPropertyOp35
 70
     1
102
RTVSPropertyOp36
 70
     1
102
RTVSPropertyOp37
 70
     0
102
RTVSPropertyOp38
 70
     0
102
RTVSPropertyOp39
 70
     0
102
RTVSPropertyOp40
 70
     0
102
RTVSPropertyOp41
 70
     0
102
RTVSPropertyOp42
 70
     0
102
RTVSPropertyOp43
 70
     0
102
RTVSPropertyOp44
 70
     0
102
RTVSPropertyOp45
 70
     1
102
RTVSPropertyOp46
 70
     0
102
RTVSPropertyOp47
 70
     0
102
RTVSPropertyOp48
 70
     0
102
RTVSPropertyOp49
 70
     1
102
RTVSPropertyOp50
 70
     0
102
RTVSPropertyOp51
 70
     0
102
RTVSPropertyOp52
 70
     0
102
RTVSPropertyOp53
 70
     0
102
RTVSPropertyOp54
 70
     0
102
RTVSPropertyOp55
 70
     1
102
RTVSPropertyOp56
 70
     0
102
RTVSPropertyOp57
 70
     0
102
RTVSPropertyOp58
 70
     0
102
RTVSPropertyOp59
 70
     0
102
RTVSPropertyOp60
 70
     0
102
RTVSPropertyOp61
 70
     0
102
RTVSPropertyOp62
 70
     0
  0
XRECORD
  5
4A9
102
{ACAD_REACTORS
330
4A8
102
}
330
4A8
100
AcDbXrecord
280
     1
102
RTVSPost2010Prop28
280
     0
102
RTVSPost2010PropOp28
 70
     1
102
RTVSPost2010Prop29
280
     1
102
RTVSPost2010PropOp29
 70
     1
102
RTVSPost2010Prop30
280
     1
102
RTVSPost2010PropOp30
 70
     1
102
RTVSPost2010Prop31
280
     0
102
RTVSPost2010PropOp31
 70
     1
102
RTVSPost2010Prop32
280
     0
102
RTVSPost2010PropOp32
 70
     1
102
RTVSPost2010Prop33
280
     0
102
RTVSPost2010PropOp33
 70
     1
102
RTVSPost2010Prop34
280
     0
102
RTVSPost2010PropOp34
 70
     1
102
RTVSPost2010Prop35
280
     0
102
RTVSPost2010PropOp35
 70
     1
102
RTVSPost2010Prop36
280
     0
102
RTVSPost2010PropOp36
 70
     1
102
RTVSPost2010Prop37
 90
       50
102
RTVSPost2010PropOp37
 70
     1
102
RTVSPost2010Prop38
140
0.0
102
RTVSPost2010PropOp38
 70
     1
102
RTVSPost2010Prop39
140
1.0
102
RTVSPost2010PropOp39
 70
     1
102
RTVSPost2010Prop40
 90
        0
102
RTVSPost2010PropOp40
 70
     1
102
RTVSPost2010Prop41ColorIndex
 90
       18
102
RTVSPost2010Prop41ColorRGB
 90
        0
102
RTVSPost2010PropOp41
 70
     1
102
RTVSPost2010Prop42
 90
       50
102
RTVSPost2010PropOp42
 70
     1
102
RTVSPost2010Prop43
 90
        3
102
RTVSPost2010PropOp43
 70
     1
102
RTVSPost2010Prop44ColorIndex
 90
        5
102
RTVSPost2010Prop44ColorRGB
 90
      255
102
RTVSPost2010PropOp44
 70
     1
102
RTVSPost2010Prop45
280
     0
102
RTVSPost2010PropOp45
 70
     1
102
RTVSPost2010Prop46
 90
       50
102
RTVSPost2010PropOp46
 70
     1
102
RTVSPost2010Prop47
 90
       50
102
RTVSPost2010PropOp47
 70
     1
102
RTVSPost2010Prop48
 90
       50
102
RTVSPost2010PropOp48
 70
     1
102
RTVSPost2010Prop49
280
     0
102
RTVSPost2010PropOp49
 70
     1
102
RTVSPost2010Prop50
 90
       50
102
RTVSPost2010PropOp50
 70
     1
102
RTVSPost2010Prop51ColorIndex
 90
      256
102
RTVSPost2010Prop51ColorRGB
 90
-16777216
102
RTVSPost2010PropOp51
 70
     0
102
RTVSPost2010Prop52
140
1.0
102
RTVSPost2010PropOp52
 70
     0
102
RTVSPost2010Prop53
 90
        2
102
RTVSPost2010PropOp53
 70
     1
102
RTVSPost2010Prop54
  1
strokes_ogs.tif
102
RTVSPost2010PropOp54
 70
     1
102
RTVSPost2010Prop55
280
     0
102
RTVSPost2010PropOp55
 70
     1
102
RTVSPost2010Prop56
140
1.0
102
RTVSPost2010PropOp56
 70
     1
102
RTVSPost2010Prop57
140
1.0
102
RTVSPost2010PropOp57
 70
     1
102
RTVSPropertyOp0
 70
     1
102
RTVSPropertyOp1
 70
     1
102
RTVSPropertyOp2
 70
     1
102
RTVSPropertyOp3
 70
     1
102
RTVSPropertyOp4
 70
     1
102
RTVSPropertyOp5
 70
     1
102
RTVSPropertyOp6
 70
     1
102
RTVSPropertyOp7
 70
     1
102
RTVSPropertyOp8
 70
     1
102
RTVSPropertyOp9
 70
     1
102
RTVSPropertyOp10
 70
     1
102
RTVSPropertyOp11
 70
     1
102
RTVSPropertyOp12
 70
     1
102
RTVSPropertyOp13
 70
     1
102
RTVSPropertyOp14
 70
     1
102
RTVSPropertyOp15
 70
     1
102
RTVSPropertyOp16
 70
     1
102
RTVSPropertyOp17
 70
     1
102
RTVSPropertyOp18
 70
     1
102
RTVSPropertyOp19
 70
     1
102
RTVSPropertyOp20
 70
     1
102
RTVSPropertyOp21
 70
     1
102
RTVSPropertyOp22
 70
     1
102
RTVSPropertyOp23
 70
     1
102
RTVSPropertyOp24
 70
     1
102
RTVSPropertyOp25
 70
     1
102
RTVSPropertyOp26
 70
     1
102
RTVSPropertyOp27
 70
     1
102
RTVSPropertyOp28
 70
     1
102
RTVSPropertyOp29
 70
     1
102
RTVSPropertyOp30
 70
     1
102
RTVSPropertyOp31
 70
     1
102
RTVSPropertyOp32
 70
     1
102
RTVSPropertyOp33
 70
     1
102
RTVSPropertyOp34
 70
     1
102
RTVSPropertyOp35
 70
     1
102
RTVSPropertyOp36
 70
     1
102
RTVSPropertyOp37
 70
     1
102
RTVSPropertyOp38
 70
     1
102
RTVSPropertyOp39
 70
     1
102
RTVSPropertyOp40
 70
     1
102
RTVSPropertyOp41
 70
     1
102
RTVSPropertyOp42
 70
     1
102
RTVSPropertyOp43
 70
     1
102
RTVSPropertyOp44
 70
     1
102
RTVSPropertyOp45
 70
     1
102
RTVSPropertyOp46
 70
     1
102
RTVSPropertyOp47
 70
     1
102
RTVSPropertyOp48
 70
     1
102
RTVSPropertyOp49
 70
     1
102
RTVSPropertyOp50
 70
     1
102
RTVSPropertyOp51
 70
     0
102
RTVSPropertyOp52
 70
     0
102
RTVSPropertyOp53
 70
     1
102
RTVSPropertyOp54
 70
     1
102
RTVSPropertyOp55
 70
     1
102
RTVSPropertyOp56
 70
     1
102
RTVSPropertyOp57
 70
     1
102
RTVSPropertyOp58
 70
     1
102
RTVSPropertyOp59
 70
     1
102
RTVSPropertyOp60
 70
     1
102
RTVSPropertyOp61
 70
     1
102
RTVSPropertyOp62
 70
     1
  0
XRECORD
  5
48D
102
{ACAD_REACTORS
330
48C
102
}
330
48C
100
AcDbXrecord
280
     1
102
RTVSPost2010Prop28
280
     0
102
RTVSPost2010PropOp28
 70
     1
102
RTVSPost2010Prop29
280
     1
102
RTVSPost2010PropOp29
 70
     1
102
RTVSPost2010Prop30
280
     1
102
RTVSPost2010PropOp30
 70
     1
102
RTVSPost2010Prop31
280
     0
102
RTVSPost2010PropOp31
 70
     1
102
RTVSPost2010Prop32
280
     0
102
RTVSPost2010PropOp32
 70
     1
102
RTVSPost2010Prop33
280
     0
102
RTVSPost2010PropOp33
 70
     1
102
RTVSPost2010Prop34
280
     0
102
RTVSPost2010PropOp34
 70
     1
102
RTVSPost2010Prop35
280
     0
102
RTVSPost2010PropOp35
 70
     1
102
RTVSPost2010Prop36
280
     0
102
RTVSPost2010PropOp36
 70
     1
102
RTVSPost2010Prop37
 90
       50
102
RTVSPost2010PropOp37
 70
     1
102
RTVSPost2010Prop38
140
0.0
102
RTVSPost2010PropOp38
 70
     1
102
RTVSPost2010Prop39
140
1.0
102
RTVSPost2010PropOp39
 70
     1
102
RTVSPost2010Prop40
 90
        0
102
RTVSPost2010PropOp40
 70
     1
102
RTVSPost2010Prop41ColorIndex
 90
       18
102
RTVSPost2010Prop41ColorRGB
 90
        0
102
RTVSPost2010PropOp41
 70
     1
102
RTVSPost2010Prop42
 90
       50
102
RTVSPost2010PropOp42
 70
     1
102
RTVSPost2010Prop43
 90
        3
102
RTVSPost2010PropOp43
 70
     1
102
RTVSPost2010Prop44ColorIndex
 90
        5
102
RTVSPost2010Prop44ColorRGB
 90
      255
102
RTVSPost2010PropOp44
 70
     1
102
RTVSPost2010Prop45
280
     0
102
RTVSPost2010PropOp45
 70
     1
102
RTVSPost2010Prop46
 90
       50
102
RTVSPost2010PropOp46
 70
     1
102
RTVSPost2010Prop47
 90
       50
102
RTVSPost2010PropOp47
 70
     1
102
RTVSPost2010Prop48
 90
       50
102
RTVSPost2010PropOp48
 70
     1
102
RTVSPost2010Prop49
280
     0
102
RTVSPost2010PropOp49
 70
     1
102
RTVSPost2010Prop50
 90
       50
102
RTVSPost2010PropOp50
 70
     1
102
RTVSPost2010Prop51ColorIndex
 90
      256
102
RTVSPost2010Prop51ColorRGB
 90
-16777216
102
RTVSPost2010PropOp51
 70
     0
102
RTVSPost2010Prop52
140
1.0
102
RTVSPost2010PropOp52
 70
     0
102
RTVSPost2010Prop53
 90
        2
102
RTVSPost2010PropOp53
 70
     1
102
RTVSPost2010Prop54
  1
strokes_ogs.tif
102
RTVSPost2010PropOp54
 70
     1
102
RTVSPost2010Prop55
280
     0
102
RTVSPost2010PropOp55
 70
     1
102
RTVSPost2010Prop56
140
1.0
102
RTVSPost2010PropOp56
 70
     1
102
RTVSPost2010Prop57
140
1.0
102
RTVSPost2010PropOp57
 70
     1
102
RTVSPropertyOp0
 70
     1
102
RTVSPropertyOp1
 70
     1
102
RTVSPropertyOp2
 70
     1
102
RTVSPropertyOp3
 70
     1
102
RTVSPropertyOp4
 70
     1
102
RTVSPropertyOp5
 70
     1
102
RTVSPropertyOp6
 70
     1
102
RTVSPropertyOp7
 70
     1
102
RTVSPropertyOp8
 70
     1
102
RTVSPropertyOp9
 70
     1
102
RTVSPropertyOp10
 70
     1
102
RTVSPropertyOp11
 70
     1
102
RTVSPropertyOp12
 70
     1
102
RTVSPropertyOp13
 70
     1
102
RTVSPropertyOp14
 70
     1
102
RTVSPropertyOp15
 70
     1
102
RTVSPropertyOp16
 70
     1
102
RTVSPropertyOp17
 70
     1
102
RTVSPropertyOp18
 70
     1
102
RTVSPropertyOp19
 70
     1
102
RTVSPropertyOp20
 70
     1
102
RTVSPropertyOp21
 70
     1
102
RTVSPropertyOp22
 70
     1
102
RTVSPropertyOp23
 70
     1
102
RTVSPropertyOp24
 70
     1
102
RTVSPropertyOp25
 70
     1
102
RTVSPropertyOp26
 70
     1
102
RTVSPropertyOp27
 70
     1
102
RTVSPropertyOp28
 70
     1
102
RTVSPropertyOp29
 70
     1
102
RTVSPropertyOp30
 70
     1
102
RTVSPropertyOp31
 70
     1
102
RTVSPropertyOp32
 70
     1
102
RTVSPropertyOp33
 70
     1
102
RTVSPropertyOp34
 70
     1
102
RTVSPropertyOp35
 70
     1
102
RTVSPropertyOp36
 70
     1
102
RTVSPropertyOp37
 70
     1
102
RTVSPropertyOp38
 70
     1
102
RTVSPropertyOp39
 70
     1
102
RTVSPropertyOp40
 70
     1
102
RTVSPropertyOp41
 70
     1
102
RTVSPropertyOp42
 70
     1
102
RTVSPropertyOp43
 70
     1
102
RTVSPropertyOp44
 70
     1
102
RTVSPropertyOp45
 70
     1
102
RTVSPropertyOp46
 70
     1
102
RTVSPropertyOp47
 70
     1
102
RTVSPropertyOp48
 70
     1
102
RTVSPropertyOp49
 70
     1
102
RTVSPropertyOp50
 70
     1
102
RTVSPropertyOp51
 70
     0
102
RTVSPropertyOp52
 70
     0
102
RTVSPropertyOp53
 70
     1
102
RTVSPropertyOp54
 70
     1
102
RTVSPropertyOp55
 70
     1
102
RTVSPropertyOp56
 70
     1
102
RTVSPropertyOp57
 70
     1
102
RTVSPropertyOp58
 70
     1
102
RTVSPropertyOp59
 70
     1
102
RTVSPropertyOp60
 70
     1
102
RTVSPropertyOp61
 70
     1
102
RTVSPropertyOp62
 70
     1
  0
XRECORD
  5
48F
102
{ACAD_REACTORS
330
48E
102
}
330
48E
100
AcDbXrecord
280
     1
102
RTVSPost2010Prop28
280
     0
102
RTVSPost2010PropOp28
 70
     1
102
RTVSPost2010Prop29
280
     1
102
RTVSPost2010PropOp29
 70
     1
102
RTVSPost2010Prop30
280
     1
102
RTVSPost2010PropOp30
 70
     1
102
RTVSPost2010Prop31
280
     0
102
RTVSPost2010PropOp31
 70
     1
102
RTVSPost2010Prop32
280
     0
102
RTVSPost2010PropOp32
 70
     1
102
RTVSPost2010Prop33
280
     0
102
RTVSPost2010PropOp33
 70
     1
102
RTVSPost2010Prop34
280
     0
102
RTVSPost2010PropOp34
 70
     1
102
RTVSPost2010Prop35
280
     0
102
RTVSPost2010PropOp35
 70
     1
102
RTVSPost2010Prop36
280
     0
102
RTVSPost2010PropOp36
 70
     1
102
RTVSPost2010Prop37
 90
       50
102
RTVSPost2010PropOp37
 70
     1
102
RTVSPost2010Prop38
140
0.0
102
RTVSPost2010PropOp38
 70
     1
102
RTVSPost2010Prop39
140
1.0
102
RTVSPost2010PropOp39
 70
     1
102
RTVSPost2010Prop40
 90
        0
102
RTVSPost2010PropOp40
 70
     1
102
RTVSPost2010Prop41ColorIndex
 90
       18
102
RTVSPost2010Prop41ColorRGB
 90
        0
102
RTVSPost2010PropOp41
 70
     1
102
RTVSPost2010Prop42
 90
       50
102
RTVSPost2010PropOp42
 70
     1
102
RTVSPost2010Prop43
 90
        3
102
RTVSPost2010PropOp43
 70
     1
102
RTVSPost2010Prop44ColorIndex
 90
        5
102
RTVSPost2010Prop44ColorRGB
 90
      255
102
RTVSPost2010PropOp44
 70
     1
102
RTVSPost2010Prop45
280
     0
102
RTVSPost2010PropOp45
 70
     1
102
RTVSPost2010Prop46
 90
       50
102
RTVSPost2010PropOp46
 70
     1
102
RTVSPost2010Prop47
 90
       50
102
RTVSPost2010PropOp47
 70
     1
102
RTVSPost2010Prop48
 90
       50
102
RTVSPost2010PropOp48
 70
     1
102
RTVSPost2010Prop49
280
     0
102
RTVSPost2010PropOp49
 70
     1
102
RTVSPost2010Prop50
 90
       50
102
RTVSPost2010PropOp50
 70
     1
102
RTVSPost2010Prop51ColorIndex
 90
      256
102
RTVSPost2010Prop51ColorRGB
 90
-16777216
102
RTVSPost2010PropOp51
 70
     0
102
RTVSPost2010Prop52
140
1.0
102
RTVSPost2010PropOp52
 70
     0
102
RTVSPost2010Prop53
 90
        2
102
RTVSPost2010PropOp53
 70
     1
102
RTVSPost2010Prop54
  1
strokes_ogs.tif
102
RTVSPost2010PropOp54
 70
     1
102
RTVSPost2010Prop55
280
     0
102
RTVSPost2010PropOp55
 70
     1
102
RTVSPost2010Prop56
140
1.0
102
RTVSPost2010PropOp56
 70
     1
102
RTVSPost2010Prop57
140
1.0
102
RTVSPost2010PropOp57
 70
     1
102
RTVSPropertyOp0
 70
     1
102
RTVSPropertyOp1
 70
     1
102
RTVSPropertyOp2
 70
     1
102
RTVSPropertyOp3
 70
     1
102
RTVSPropertyOp4
 70
     1
102
RTVSPropertyOp5
 70
     1
102
RTVSPropertyOp6
 70
     1
102
RTVSPropertyOp7
 70
     1
102
RTVSPropertyOp8
 70
     1
102
RTVSPropertyOp9
 70
     1
102
RTVSPropertyOp10
 70
     1
102
RTVSPropertyOp11
 70
     1
102
RTVSPropertyOp12
 70
     1
102
RTVSPropertyOp13
 70
     1
102
RTVSPropertyOp14
 70
     1
102
RTVSPropertyOp15
 70
     1
102
RTVSPropertyOp16
 70
     1
102
RTVSPropertyOp17
 70
     1
102
RTVSPropertyOp18
 70
     1
102
RTVSPropertyOp19
 70
     1
102
RTVSPropertyOp20
 70
     1
102
RTVSPropertyOp21
 70
     1
102
RTVSPropertyOp22
 70
     1
102
RTVSPropertyOp23
 70
     1
102
RTVSPropertyOp24
 70
     1
102
RTVSPropertyOp25
 70
     1
102
RTVSPropertyOp26
 70
     1
102
RTVSPropertyOp27
 70
     1
102
RTVSPropertyOp28
 70
     1
102
RTVSPropertyOp29
 70
     1
102
RTVSPropertyOp30
 70
     1
102
RTVSPropertyOp31
 70
     1
102
RTVSPropertyOp32
 70
     1
102
RTVSPropertyOp33
 70
     1
102
RTVSPropertyOp34
 70
     1
102
RTVSPropertyOp35
 70
     1
102
RTVSPropertyOp36
 70
     1
102
RTVSPropertyOp37
 70
     1
102
RTVSPropertyOp38
 70
     1
102
RTVSPropertyOp39
 70
     1
102
RTVSPropertyOp40
 70
     1
102
RTVSPropertyOp41
 70
     1
102
RTVSPropertyOp42
 70
     1
102
RTVSPropertyOp43
 70
     1
102
RTVSPropertyOp44
 70
     1
102
RTVSPropertyOp45
 70
     1
102
RTVSPropertyOp46
 70
     1
102
RTVSPropertyOp47
 70
     1
102
RTVSPropertyOp48
 70
     1
102
RTVSPropertyOp49
 70
     1
102
RTVSPropertyOp50
 70
     1
102
RTVSPropertyOp51
 70
     0
102
RTVSPropertyOp52
 70
     0
102
RTVSPropertyOp53
 70
     1
102
RTVSPropertyOp54
 70
     1
102
RTVSPropertyOp55
 70
     1
102
RTVSPropertyOp56
 70
     1
102
RTVSPropertyOp57
 70
     1
102
RTVSPropertyOp58
 70
     1
102
RTVSPropertyOp59
 70
     1
102
RTVSPropertyOp60
 70
     1
102
RTVSPropertyOp61
 70
     1
102
RTVSPropertyOp62
 70
     1
  0
XRECORD
  5
491
102
{ACAD_REACTORS
330
490
102
}
330
490
100
AcDbXrecord
280
     1
102
RTVSPost2010Prop28
280
     0
102
RTVSPost2010PropOp28
 70
     1
102
RTVSPost2010Prop29
280
     1
102
RTVSPost2010PropOp29
 70
     1
102
RTVSPost2010Prop30
280
     1
102
RTVSPost2010PropOp30
 70
     1
102
RTVSPost2010Prop31
280
     0
102
RTVSPost2010PropOp31
 70
     1
102
RTVSPost2010Prop32
280
     0
102
RTVSPost2010PropOp32
 70
     1
102
RTVSPost2010Prop33
280
     0
102
RTVSPost2010PropOp33
 70
     1
102
RTVSPost2010Prop34
280
     0
102
RTVSPost2010PropOp34
 70
     1
102
RTVSPost2010Prop35
280
     0
102
RTVSPost2010PropOp35
 70
     1
102
RTVSPost2010Prop36
280
     0
102
RTVSPost2010PropOp36
 70
     1
102
RTVSPost2010Prop37
 90
       50
102
RTVSPost2010PropOp37
 70
     1
102
RTVSPost2010Prop38
140
0.0
102
RTVSPost2010PropOp38
 70
     1
102
RTVSPost2010Prop39
140
1.0
102
RTVSPost2010PropOp39
 70
     1
102
RTVSPost2010Prop40
 90
        0
102
RTVSPost2010PropOp40
 70
     1
102
RTVSPost2010Prop41ColorIndex
 90
       18
102
RTVSPost2010Prop41ColorRGB
 90
        0
102
RTVSPost2010PropOp41
 70
     1
102
RTVSPost2010Prop42
 90
       50
102
RTVSPost2010PropOp42
 70
     1
102
RTVSPost2010Prop43
 90
        3
102
RTVSPost2010PropOp43
 70
     1
102
RTVSPost2010Prop44ColorIndex
 90
        5
102
RTVSPost2010Prop44ColorRGB
 90
      255
102
RTVSPost2010PropOp44
 70
     1
102
RTVSPost2010Prop45
280
     0
102
RTVSPost2010PropOp45
 70
     1
102
RTVSPost2010Prop46
 90
       50
102
RTVSPost2010PropOp46
 70
     1
102
RTVSPost2010Prop47
 90
       50
102
RTVSPost2010PropOp47
 70
     1
102
RTVSPost2010Prop48
 90
       50
102
RTVSPost2010PropOp48
 70
     1
102
RTVSPost2010Prop49
280
     0
102
RTVSPost2010PropOp49
 70
     1
102
RTVSPost2010Prop50
 90
       50
102
RTVSPost2010PropOp50
 70
     1
102
RTVSPost2010Prop51ColorIndex
 90
      256
102
RTVSPost2010Prop51ColorRGB
 90
-16777216
102
RTVSPost2010PropOp51
 70
     0
102
RTVSPost2010Prop52
140
1.0
102
RTVSPost2010PropOp52
 70
     0
102
RTVSPost2010Prop53
 90
        2
102
RTVSPost2010PropOp53
 70
     1
102
RTVSPost2010Prop54
  1
strokes_ogs.tif
102
RTVSPost2010PropOp54
 70
     1
102
RTVSPost2010Prop55
280
     0
102
RTVSPost2010PropOp55
 70
     1
102
RTVSPost2010Prop56
140
1.0
102
RTVSPost2010PropOp56
 70
     1
102
RTVSPost2010Prop57
140
1.0
102
RTVSPost2010PropOp57
 70
     1
102
RTVSPropertyOp0
 70
     1
102
RTVSPropertyOp1
 70
     1
102
RTVSPropertyOp2
 70
     1
102
RTVSPropertyOp3
 70
     1
102
RTVSPropertyOp4
 70
     1
102
RTVSPropertyOp5
 70
     1
102
RTVSPropertyOp6
 70
     1
102
RTVSPropertyOp7
 70
     1
102
RTVSPropertyOp8
 70
     1
102
RTVSPropertyOp9
 70
     1
102
RTVSPropertyOp10
 70
     1
102
RTVSPropertyOp11
 70
     1
102
RTVSPropertyOp12
 70
     1
102
RTVSPropertyOp13
 70
     1
102
RTVSPropertyOp14
 70
     1
102
RTVSPropertyOp15
 70
     1
102
RTVSPropertyOp16
 70
     1
102
RTVSPropertyOp17
 70
     1
102
RTVSPropertyOp18
 70
     1
102
RTVSPropertyOp19
 70
     1
102
RTVSPropertyOp20
 70
     1
102
RTVSPropertyOp21
 70
     1
102
RTVSPropertyOp22
 70
     1
102
RTVSPropertyOp23
 70
     1
102
RTVSPropertyOp24
 70
     1
102
RTVSPropertyOp25
 70
     1
102
RTVSPropertyOp26
 70
     1
102
RTVSPropertyOp27
 70
     1
102
RTVSPropertyOp28
 70
     1
102
RTVSPropertyOp29
 70
     1
102
RTVSPropertyOp30
 70
     1
102
RTVSPropertyOp31
 70
     1
102
RTVSPropertyOp32
 70
     1
102
RTVSPropertyOp33
 70
     1
102
RTVSPropertyOp34
 70
     1
102
RTVSPropertyOp35
 70
     1
102
RTVSPropertyOp36
 70
     1
102
RTVSPropertyOp37
 70
     1
102
RTVSPropertyOp38
 70
     1
102
RTVSPropertyOp39
 70
     1
102
RTVSPropertyOp40
 70
     1
102
RTVSPropertyOp41
 70
     1
102
RTVSPropertyOp42
 70
     1
102
RTVSPropertyOp43
 70
     1
102
RTVSPropertyOp44
 70
     1
102
RTVSPropertyOp45
 70
     1
102
RTVSPropertyOp46
 70
     1
102
RTVSPropertyOp47
 70
     1
102
RTVSPropertyOp48
 70
     1
102
RTVSPropertyOp49
 70
     1
102
RTVSPropertyOp50
 70
     1
102
RTVSPropertyOp51
 70
     0
102
RTVSPropertyOp52
 70
     0
102
RTVSPropertyOp53
 70
     1
102
RTVSPropertyOp54
 70
     1
102
RTVSPropertyOp55
 70
     1
102
RTVSPropertyOp56
 70
     1
102
RTVSPropertyOp57
 70
     1
102
RTVSPropertyOp58
 70
     1
102
RTVSPropertyOp59
 70
     1
102
RTVSPropertyOp60
 70
     1
102
RTVSPropertyOp61
 70
     1
102
RTVSPropertyOp62
 70
     1
  0
XRECORD
  5
493
102
{ACAD_REACTORS
330
492
102
}
330
492
100
AcDbXrecord
280
     1
102
RTVSPost2010Prop28
280
     0
102
RTVSPost2010PropOp28
 70
     1
102
RTVSPost2010Prop29
280
     1
102
RTVSPost2010PropOp29
 70
     1
102
RTVSPost2010Prop30
280
     1
102
RTVSPost2010PropOp30
 70
     1
102
RTVSPost2010Prop31
280
     0
102
RTVSPost2010PropOp31
 70
     1
102
RTVSPost2010Prop32
280
     0
102
RTVSPost2010PropOp32
 70
     1
102
RTVSPost2010Prop33
280
     0
102
RTVSPost2010PropOp33
 70
     1
102
RTVSPost2010Prop34
280
     0
102
RTVSPost2010PropOp34
 70
     1
102
RTVSPost2010Prop35
280
     0
102
RTVSPost2010PropOp35
 70
     1
102
RTVSPost2010Prop36
280
     0
102
RTVSPost2010PropOp36
 70
     1
102
RTVSPost2010Prop37
 90
       50
102
RTVSPost2010PropOp37
 70
     1
102
RTVSPost2010Prop38
140
0.0
102
RTVSPost2010PropOp38
 70
     1
102
RTVSPost2010Prop39
140
1.0
102
RTVSPost2010PropOp39
 70
     1
102
RTVSPost2010Prop40
 90
        0
102
RTVSPost2010PropOp40
 70
     1
102
RTVSPost2010Prop41ColorIndex
 90
       18
102
RTVSPost2010Prop41ColorRGB
 90
        0
102
RTVSPost2010PropOp41
 70
     1
102
RTVSPost2010Prop42
 90
       50
102
RTVSPost2010PropOp42
 70
     1
102
RTVSPost2010Prop43
 90
        3
102
RTVSPost2010PropOp43
 70
     1
102
RTVSPost2010Prop44ColorIndex
 90
        5
102
RTVSPost2010Prop44ColorRGB
 90
      255
102
RTVSPost2010PropOp44
 70
     1
102
RTVSPost2010Prop45
280
     0
102
RTVSPost2010PropOp45
 70
     1
102
RTVSPost2010Prop46
 90
       50
102
RTVSPost2010PropOp46
 70
     1
102
RTVSPost2010Prop47
 90
       50
102
RTVSPost2010PropOp47
 70
     1
102
RTVSPost2010Prop48
 90
       50
102
RTVSPost2010PropOp48
 70
     1
102
RTVSPost2010Prop49
280
     0
102
RTVSPost2010PropOp49
 70
     1
102
RTVSPost2010Prop50
 90
       50
102
RTVSPost2010PropOp50
 70
     1
102
RTVSPost2010Prop51ColorIndex
 90
      256
102
RTVSPost2010Prop51ColorRGB
 90
-16777216
102
RTVSPost2010PropOp51
 70
     0
102
RTVSPost2010Prop52
140
1.0
102
RTVSPost2010PropOp52
 70
     0
102
RTVSPost2010Prop53
 90
        2
102
RTVSPost2010PropOp53
 70
     1
102
RTVSPost2010Prop54
  1
strokes_ogs.tif
102
RTVSPost2010PropOp54
 70
     1
102
RTVSPost2010Prop55
280
     0
102
RTVSPost2010PropOp55
 70
     1
102
RTVSPost2010Prop56
140
1.0
102
RTVSPost2010PropOp56
 70
     1
102
RTVSPost2010Prop57
140
1.0
102
RTVSPost2010PropOp57
 70
     1
102
RTVSPropertyOp0
 70
     1
102
RTVSPropertyOp1
 70
     1
102
RTVSPropertyOp2
 70
     1
102
RTVSPropertyOp3
 70
     1
102
RTVSPropertyOp4
 70
     1
102
RTVSPropertyOp5
 70
     1
102
RTVSPropertyOp6
 70
     1
102
RTVSPropertyOp7
 70
     1
102
RTVSPropertyOp8
 70
     1
102
RTVSPropertyOp9
 70
     1
102
RTVSPropertyOp10
 70
     1
102
RTVSPropertyOp11
 70
     1
102
RTVSPropertyOp12
 70
     1
102
RTVSPropertyOp13
 70
     1
102
RTVSPropertyOp14
 70
     1
102
RTVSPropertyOp15
 70
     1
102
RTVSPropertyOp16
 70
     1
102
RTVSPropertyOp17
 70
     1
102
RTVSPropertyOp18
 70
     1
102
RTVSPropertyOp19
 70
     1
102
RTVSPropertyOp20
 70
     1
102
RTVSPropertyOp21
 70
     1
102
RTVSPropertyOp22
 70
     1
102
RTVSPropertyOp23
 70
     1
102
RTVSPropertyOp24
 70
     1
102
RTVSPropertyOp25
 70
     1
102
RTVSPropertyOp26
 70
     1
102
RTVSPropertyOp27
 70
     1
102
RTVSPropertyOp28
 70
     1
102
RTVSPropertyOp29
 70
     1
102
RTVSPropertyOp30
 70
     1
102
RTVSPropertyOp31
 70
     1
102
RTVSPropertyOp32
 70
     1
102
RTVSPropertyOp33
 70
     1
102
RTVSPropertyOp34
 70
     1
102
RTVSPropertyOp35
 70
     1
102
RTVSPropertyOp36
 70
     1
102
RTVSPropertyOp37
 70
     1
102
RTVSPropertyOp38
 70
     1
102
RTVSPropertyOp39
 70
     1
102
RTVSPropertyOp40
 70
     1
102
RTVSPropertyOp41
 70
     1
102
RTVSPropertyOp42
 70
     1
102
RTVSPropertyOp43
 70
     1
102
RTVSPropertyOp44
 70
     1
102
RTVSPropertyOp45
 70
     1
102
RTVSPropertyOp46
 70
     1
102
RTVSPropertyOp47
 70
     1
102
RTVSPropertyOp48
 70
     1
102
RTVSPropertyOp49
 70
     1
102
RTVSPropertyOp50
 70
     1
102
RTVSPropertyOp51
 70
     0
102
RTVSPropertyOp52
 70
     0
102
RTVSPropertyOp53
 70
     1
102
RTVSPropertyOp54
 70
     1
102
RTVSPropertyOp55
 70
     1
102
RTVSPropertyOp56
 70
     1
102
RTVSPropertyOp57
 70
     1
102
RTVSPropertyOp58
 70
     1
102
RTVSPropertyOp59
 70
     1
102
RTVSPropertyOp60
 70
     1
102
RTVSPropertyOp61
 70
     1
102
RTVSPropertyOp62
 70
     1
  0
XRECORD
  5
49B
102
{ACAD_REACTORS
330
49A
102
}
330
49A
100
AcDbXrecord
280
     1
102
RTVSPost2010Prop28
280
     0
102
RTVSPost2010PropOp28
 70
     1
102
RTVSPost2010Prop29
280
     1
102
RTVSPost2010PropOp29
 70
     1
102
RTVSPost2010Prop30
280
     1
102
RTVSPost2010PropOp30
 70
     1
102
RTVSPost2010Prop31
280
     0
102
RTVSPost2010PropOp31
 70
     1
102
RTVSPost2010Prop32
280
     0
102
RTVSPost2010PropOp32
 70
     1
102
RTVSPost2010Prop33
280
     0
102
RTVSPost2010PropOp33
 70
     1
102
RTVSPost2010Prop34
280
     0
102
RTVSPost2010PropOp34
 70
     1
102
RTVSPost2010Prop35
280
     0
102
RTVSPost2010PropOp35
 70
     1
102
RTVSPost2010Prop36
280
     0
102
RTVSPost2010PropOp36
 70
     1
102
RTVSPost2010Prop37
 90
       50
102
RTVSPost2010PropOp37
 70
     1
102
RTVSPost2010Prop38
140
0.0
102
RTVSPost2010PropOp38
 70
     1
102
RTVSPost2010Prop39
140
1.0
102
RTVSPost2010PropOp39
 70
     1
102
RTVSPost2010Prop40
 90
        0
102
RTVSPost2010PropOp40
 70
     1
102
RTVSPost2010Prop41ColorIndex
 90
       18
102
RTVSPost2010Prop41ColorRGB
 90
        0
102
RTVSPost2010PropOp41
 70
     1
102
RTVSPost2010Prop42
 90
       50
102
RTVSPost2010PropOp42
 70
     1
102
RTVSPost2010Prop43
 90
        3
102
RTVSPost2010PropOp43
 70
     1
102
RTVSPost2010Prop44ColorIndex
 90
        5
102
RTVSPost2010Prop44ColorRGB
 90
      255
102
RTVSPost2010PropOp44
 70
     1
102
RTVSPost2010Prop45
280
     0
102
RTVSPost2010PropOp45
 70
     1
102
RTVSPost2010Prop46
 90
       50
102
RTVSPost2010PropOp46
 70
     1
102
RTVSPost2010Prop47
 90
       50
102
RTVSPost2010PropOp47
 70
     1
102
RTVSPost2010Prop48
 90
       50
102
RTVSPost2010PropOp48
 70
     1
102
RTVSPost2010Prop49
280
     0
102
RTVSPost2010PropOp49
 70
     1
102
RTVSPost2010Prop50
 90
       50
102
RTVSPost2010PropOp50
 70
     1
102
RTVSPost2010Prop51ColorIndex
 90
      256
102
RTVSPost2010Prop51ColorRGB
 90
-16777216
102
RTVSPost2010PropOp51
 70
     0
102
RTVSPost2010Prop52
140
1.0
102
RTVSPost2010PropOp52
 70
     0
102
RTVSPost2010Prop53
 90
        2
102
RTVSPost2010PropOp53
 70
     1
102
RTVSPost2010Prop54
  1
strokes_ogs.tif
102
RTVSPost2010PropOp54
 70
     1
102
RTVSPost2010Prop55
280
     0
102
RTVSPost2010PropOp55
 70
     1
102
RTVSPost2010Prop56
140
1.0
102
RTVSPost2010PropOp56
 70
     1
102
RTVSPost2010Prop57
140
1.0
102
RTVSPost2010PropOp57
 70
     1
102
RTVSPropertyOp0
 70
     1
102
RTVSPropertyOp1
 70
     1
102
RTVSPropertyOp2
 70
     1
102
RTVSPropertyOp3
 70
     1
102
RTVSPropertyOp4
 70
     1
102
RTVSPropertyOp5
 70
     1
102
RTVSPropertyOp6
 70
     1
102
RTVSPropertyOp7
 70
     1
102
RTVSPropertyOp8
 70
     1
102
RTVSPropertyOp9
 70
     1
102
RTVSPropertyOp10
 70
     1
102
RTVSPropertyOp11
 70
     1
102
RTVSPropertyOp12
 70
     1
102
RTVSPropertyOp13
 70
     1
102
RTVSPropertyOp14
 70
     1
102
RTVSPropertyOp15
 70
     1
102
RTVSPropertyOp16
 70
     1
102
RTVSPropertyOp17
 70
     1
102
RTVSPropertyOp18
 70
     1
102
RTVSPropertyOp19
 70
     1
102
RTVSPropertyOp20
 70
     1
102
RTVSPropertyOp21
 70
     1
102
RTVSPropertyOp22
 70
     1
102
RTVSPropertyOp23
 70
     1
102
RTVSPropertyOp24
 70
     1
102
RTVSPropertyOp25
 70
     1
102
RTVSPropertyOp26
 70
     1
102
RTVSPropertyOp27
 70
     1
102
RTVSPropertyOp28
 70
     1
102
RTVSPropertyOp29
 70
     1
102
RTVSPropertyOp30
 70
     1
102
RTVSPropertyOp31
 70
     1
102
RTVSPropertyOp32
 70
     1
102
RTVSPropertyOp33
 70
     1
102
RTVSPropertyOp34
 70
     1
102
RTVSPropertyOp35
 70
     1
102
RTVSPropertyOp36
 70
     1
102
RTVSPropertyOp37
 70
     1
102
RTVSPropertyOp38
 70
     1
102
RTVSPropertyOp39
 70
     1
102
RTVSPropertyOp40
 70
     1
102
RTVSPropertyOp41
 70
     1
102
RTVSPropertyOp42
 70
     1
102
RTVSPropertyOp43
 70
     1
102
RTVSPropertyOp44
 70
     1
102
RTVSPropertyOp45
 70
     1
102
RTVSPropertyOp46
 70
     1
102
RTVSPropertyOp47
 70
     1
102
RTVSPropertyOp48
 70
     1
102
RTVSPropertyOp49
 70
     1
102
RTVSPropertyOp50
 70
     1
102
RTVSPropertyOp51
 70
     0
102
RTVSPropertyOp52
 70
     0
102
RTVSPropertyOp53
 70
     1
102
RTVSPropertyOp54
 70
     1
102
RTVSPropertyOp55
 70
     1
102
RTVSPropertyOp56
 70
     1
102
RTVSPropertyOp57
 70
     1
102
RTVSPropertyOp58
 70
     1
102
RTVSPropertyOp59
 70
     1
102
RTVSPropertyOp60
 70
     1
102
RTVSPropertyOp61
 70
     1
102
RTVSPropertyOp62
 70
     1
  0
XRECORD
  5
4B7
102
{ACAD_REACTORS
330
4B6
102
}
330
4B6
100
AcDbXrecord
280
     1
102
RTVSPost2010Prop28
280
     0
102
RTVSPost2010PropOp28
 70
     1
102
RTVSPost2010Prop29
280
     1
102
RTVSPost2010PropOp29
 70
     1
102
RTVSPost2010Prop30
280
     1
102
RTVSPost2010PropOp30
 70
     1
102
RTVSPost2010Prop31
280
     0
102
RTVSPost2010PropOp31
 70
     1
102
RTVSPost2010Prop32
280
     0
102
RTVSPost2010PropOp32
 70
     1
102
RTVSPost2010Prop33
280
     0
102
RTVSPost2010PropOp33
 70
     1
102
RTVSPost2010Prop34
280
     0
102
RTVSPost2010PropOp34
 70
     1
102
RTVSPost2010Prop35
280
     0
102
RTVSPost2010PropOp35
 70
     1
102
RTVSPost2010Prop36
280
     0
102
RTVSPost2010PropOp36
 70
     1
102
RTVSPost2010Prop37
 90
       50
102
RTVSPost2010PropOp37
 70
     0
102
RTVSPost2010Prop38
140
0.0
102
RTVSPost2010PropOp38
 70
     0
102
RTVSPost2010Prop39
140
1.0
102
RTVSPost2010PropOp39
 70
     0
102
RTVSPost2010Prop40
 90
        0
102
RTVSPost2010PropOp40
 70
     0
102
RTVSPost2010Prop41ColorIndex
 90
       18
102
RTVSPost2010Prop41ColorRGB
 90
        0
102
RTVSPost2010PropOp41
 70
     0
102
RTVSPost2010Prop42
 90
       50
102
RTVSPost2010PropOp42
 70
     0
102
RTVSPost2010Prop43
 90
        3
102
RTVSPost2010PropOp43
 70
     0
102
RTVSPost2010Prop44ColorIndex
 90
        5
102
RTVSPost2010Prop44ColorRGB
 90
      255
102
RTVSPost2010PropOp44
 70
     0
102
RTVSPost2010Prop45
280
     0
102
RTVSPost2010PropOp45
 70
     1
102
RTVSPost2010Prop46
 90
       50
102
RTVSPost2010PropOp46
 70
     0
102
RTVSPost2010Prop47
 90
       50
102
RTVSPost2010PropOp47
 70
     0
102
RTVSPost2010Prop48
 90
       50
102
RTVSPost2010PropOp48
 70
     0
102
RTVSPost2010Prop49
280
     0
102
RTVSPost2010PropOp49
 70
     1
102
RTVSPost2010Prop50
 90
       50
102
RTVSPost2010PropOp50
 70
     0
102
RTVSPost2010Prop51ColorIndex
 90
      256
102
RTVSPost2010Prop51ColorRGB
 90
-16777216
102
RTVSPost2010PropOp51
 70
     0
102
RTVSPost2010Prop52
140
1.0
102
RTVSPost2010PropOp52
 70
     0
102
RTVSPost2010Prop53
 90
        2
102
RTVSPost2010PropOp53
 70
     0
102
RTVSPost2010Prop54
  1
strokes_ogs.tif
102
RTVSPost2010PropOp54
 70
     0
102
RTVSPost2010Prop55
280
     0
102
RTVSPost2010PropOp55
 70
     1
102
RTVSPost2010Prop56
140
1.0
102
RTVSPost2010PropOp56
 70
     0
102
RTVSPost2010Prop57
140
1.0
102
RTVSPost2010PropOp57
 70
     0
102
RTVSPropertyOp0
 70
     0
102
RTVSPropertyOp1
 70
     0
102
RTVSPropertyOp2
 70
     0
102
RTVSPropertyOp3
 70
     0
102
RTVSPropertyOp4
 70
     0
102
RTVSPropertyOp5
 70
     0
102
RTVSPropertyOp6
 70
     0
102
RTVSPropertyOp7
 70
     0
102
RTVSPropertyOp8
 70
     0
102
RTVSPropertyOp9
 70
     0
102
RTVSPropertyOp10
 70
     0
102
RTVSPropertyOp11
 70
     0
102
RTVSPropertyOp12
 70
     0
102
RTVSPropertyOp13
 70
     0
102
RTVSPropertyOp14
 70
     2
102
RTVSPropertyOp15
 70
     0
102
RTVSPropertyOp16
 70
     0
102
RTVSPropertyOp17
 70
     0
102
RTVSPropertyOp18
 70
     0
102
RTVSPropertyOp19
 70
     0
102
RTVSPropertyOp20
 70
     0
102
RTVSPropertyOp21
 70
     0
102
RTVSPropertyOp22
 70
     0
102
RTVSPropertyOp23
 70
     0
102
RTVSPropertyOp24
 70
     0
102
RTVSPropertyOp25
 70
     0
102
RTVSPropertyOp26
 70
     0
102
RTVSPropertyOp27
 70
     0
102
RTVSPropertyOp28
 70
     1
102
RTVSPropertyOp29
 70
     1
102
RTVSPropertyOp30
 70
     1
102
RTVSPropertyOp31
 70
     1
102
RTVSPropertyOp32
 70
     1
102
RTVSPropertyOp33
 70
     1
102
RTVSPropertyOp34
 70
     1
102
RTVSPropertyOp35
 70
     1
102
RTVSPropertyOp36
 70
     1
102
RTVSPropertyOp37
 70
     0
102
RTVSPropertyOp38
 70
     0
102
RTVSPropertyOp39
 70
     0
102
RTVSPropertyOp40
 70
     0
102
RTVSPropertyOp41
 70
     0
102
RTVSPropertyOp42
 70
     0
102
RTVSPropertyOp43
 70
     0
102
RTVSPropertyOp44
 70
     0
102
RTVSPropertyOp45
 70
     1
102
RTVSPropertyOp46
 70
     0
102
RTVSPropertyOp47
 70
     0
102
RTVSPropertyOp48
 70
     0
102
RTVSPropertyOp49
 70
     1
102
RTVSPropertyOp50
 70
     0
102
RTVSPropertyOp51
 70
     0
102
RTVSPropertyOp52
 70
     0
102
RTVSPropertyOp53
 70
     0
102
RTVSPropertyOp54
 70
     0
102
RTVSPropertyOp55
 70
     1
102
RTVSPropertyOp56
 70
     0
102
RTVSPropertyOp57
 70
     0
102
RTVSPropertyOp58
 70
     0
102
RTVSPropertyOp59
 70
     0
102
RTVSPropertyOp60
 70
     0
102
RTVSPropertyOp61
 70
     0
102
RTVSPropertyOp62
 70
     0
  0
XRECORD
  5
4A7
102
{ACAD_REACTORS
330
4A6
102
}
330
4A6
100
AcDbXrecord
280
     1
102
RTVSPost2010Prop28
280
     0
102
RTVSPost2010PropOp28
 70
     1
102
RTVSPost2010Prop29
280
     1
102
RTVSPost2010PropOp29
 70
     1
102
RTVSPost2010Prop30
280
     1
102
RTVSPost2010PropOp30
 70
     1
102
RTVSPost2010Prop31
280
     0
102
RTVSPost2010PropOp31
 70
     1
102
RTVSPost2010Prop32
280
     0
102
RTVSPost2010PropOp32
 70
     1
102
RTVSPost2010Prop33
280
     0
102
RTVSPost2010PropOp33
 70
     1
102
RTVSPost2010Prop34
280
     0
102
RTVSPost2010PropOp34
 70
     1
102
RTVSPost2010Prop35
280
     0
102
RTVSPost2010PropOp35
 70
     1
102
RTVSPost2010Prop36
280
     0
102
RTVSPost2010PropOp36
 70
     1
102
RTVSPost2010Prop37
 90
       50
102
RTVSPost2010PropOp37
 70
     1
102
RTVSPost2010Prop38
140
0.0
102
RTVSPost2010PropOp38
 70
     1
102
RTVSPost2010Prop39
140
1.0
102
RTVSPost2010PropOp39
 70
     1
102
RTVSPost2010Prop40
 90
        0
102
RTVSPost2010PropOp40
 70
     1
102
RTVSPost2010Prop41ColorIndex
 90
       18
102
RTVSPost2010Prop41ColorRGB
 90
        0
102
RTVSPost2010PropOp41
 70
     1
102
RTVSPost2010Prop42
 90
       50
102
RTVSPost2010PropOp42
 70
     1
102
RTVSPost2010Prop43
 90
        3
102
RTVSPost2010PropOp43
 70
     1
102
RTVSPost2010Prop44ColorIndex
 90
        5
102
RTVSPost2010Prop44ColorRGB
 90
      255
102
RTVSPost2010PropOp44
 70
     1
102
RTVSPost2010Prop45
280
     0
102
RTVSPost2010PropOp45
 70
     1
102
RTVSPost2010Prop46
 90
       50
102
RTVSPost2010PropOp46
 70
     1
102
RTVSPost2010Prop47
 90
       50
102
RTVSPost2010PropOp47
 70
     1
102
RTVSPost2010Prop48
 90
       50
102
RTVSPost2010PropOp48
 70
     1
102
RTVSPost2010Prop49
280
     0
102
RTVSPost2010PropOp49
 70
     1
102
RTVSPost2010Prop50
 90
       50
102
RTVSPost2010PropOp50
 70
     1
102
RTVSPost2010Prop51ColorIndex
 90
      256
102
RTVSPost2010Prop51ColorRGB
 90
-16777216
102
RTVSPost2010PropOp51
 70
     0
102
RTVSPost2010Prop52
140
1.0
102
RTVSPost2010PropOp52
 70
     0
102
RTVSPost2010Prop53
 90
        2
102
RTVSPost2010PropOp53
 70
     1
102
RTVSPost2010Prop54
  1
strokes_ogs.tif
102
RTVSPost2010PropOp54
 70
     1
102
RTVSPost2010Prop55
280
     0
102
RTVSPost2010PropOp55
 70
     1
102
RTVSPost2010Prop56
140
1.0
102
RTVSPost2010PropOp56
 70
     1
102
RTVSPost2010Prop57
140
1.0
102
RTVSPost2010PropOp57
 70
     1
102
RTVSPropertyOp0
 70
     1
102
RTVSPropertyOp1
 70
     1
102
RTVSPropertyOp2
 70
     1
102
RTVSPropertyOp3
 70
     1
102
RTVSPropertyOp4
 70
     1
102
RTVSPropertyOp5
 70
     1
102
RTVSPropertyOp6
 70
     1
102
RTVSPropertyOp7
 70
     1
102
RTVSPropertyOp8
 70
     1
102
RTVSPropertyOp9
 70
     1
102
RTVSPropertyOp10
 70
     1
102
RTVSPropertyOp11
 70
     1
102
RTVSPropertyOp12
 70
     1
102
RTVSPropertyOp13
 70
     1
102
RTVSPropertyOp14
 70
     1
102
RTVSPropertyOp15
 70
     1
102
RTVSPropertyOp16
 70
     1
102
RTVSPropertyOp17
 70
     1
102
RTVSPropertyOp18
 70
     1
102
RTVSPropertyOp19
 70
     1
102
RTVSPropertyOp20
 70
     1
102
RTVSPropertyOp21
 70
     1
102
RTVSPropertyOp22
 70
     1
102
RTVSPropertyOp23
 70
     1
102
RTVSPropertyOp24
 70
     1
102
RTVSPropertyOp25
 70
     1
102
RTVSPropertyOp26
 70
     1
102
RTVSPropertyOp27
 70
     1
102
RTVSPropertyOp28
 70
     1
102
RTVSPropertyOp29
 70
     1
102
RTVSPropertyOp30
 70
     1
102
RTVSPropertyOp31
 70
     1
102
RTVSPropertyOp32
 70
     1
102
RTVSPropertyOp33
 70
     1
102
RTVSPropertyOp34
 70
     1
102
RTVSPropertyOp35
 70
     1
102
RTVSPropertyOp36
 70
     1
102
RTVSPropertyOp37
 70
     1
102
RTVSPropertyOp38
 70
     1
102
RTVSPropertyOp39
 70
     1
102
RTVSPropertyOp40
 70
     1
102
RTVSPropertyOp41
 70
     1
102
RTVSPropertyOp42
 70
     1
102
RTVSPropertyOp43
 70
     1
102
RTVSPropertyOp44
 70
     1
102
RTVSPropertyOp45
 70
     1
102
RTVSPropertyOp46
 70
     1
102
RTVSPropertyOp47
 70
     1
102
RTVSPropertyOp48
 70
     1
102
RTVSPropertyOp49
 70
     1
102
RTVSPropertyOp50
 70
     1
102
RTVSPropertyOp51
 70
     0
102
RTVSPropertyOp52
 70
     0
102
RTVSPropertyOp53
 70
     1
102
RTVSPropertyOp54
 70
     1
102
RTVSPropertyOp55
 70
     1
102
RTVSPropertyOp56
 70
     1
102
RTVSPropertyOp57
 70
     1
102
RTVSPropertyOp58
 70
     1
102
RTVSPropertyOp59
 70
     1
102
RTVSPropertyOp60
 70
     1
102
RTVSPropertyOp61
 70
     1
102
RTVSPropertyOp62
 70
     1
  0
XRECORD
  5
4B9
102
{ACAD_REACTORS
330
4B8
102
}
330
4B8
100
AcDbXrecord
280
     1
102
RTVSPost2010Prop28
280
     0
102
RTVSPost2010PropOp28
 70
     1
102
RTVSPost2010Prop29
280
     1
102
RTVSPost2010PropOp29
 70
     1
102
RTVSPost2010Prop30
280
     1
102
RTVSPost2010PropOp30
 70
     1
102
RTVSPost2010Prop31
280
     0
102
RTVSPost2010PropOp31
 70
     1
102
RTVSPost2010Prop32
280
     0
102
RTVSPost2010PropOp32
 70
     1
102
RTVSPost2010Prop33
280
     0
102
RTVSPost2010PropOp33
 70
     1
102
RTVSPost2010Prop34
280
     0
102
RTVSPost2010PropOp34
 70
     1
102
RTVSPost2010Prop35
280
     0
102
RTVSPost2010PropOp35
 70
     1
102
RTVSPost2010Prop36
280
     0
102
RTVSPost2010PropOp36
 70
     1
102
RTVSPost2010Prop37
 90
       50
102
RTVSPost2010PropOp37
 70
     0
102
RTVSPost2010Prop38
140
0.0
102
RTVSPost2010PropOp38
 70
     0
102
RTVSPost2010Prop39
140
1.0
102
RTVSPost2010PropOp39
 70
     0
102
RTVSPost2010Prop40
 90
        0
102
RTVSPost2010PropOp40
 70
     0
102
RTVSPost2010Prop41ColorIndex
 90
       18
102
RTVSPost2010Prop41ColorRGB
 90
        0
102
RTVSPost2010PropOp41
 70
     0
102
RTVSPost2010Prop42
 90
       50
102
RTVSPost2010PropOp42
 70
     0
102
RTVSPost2010Prop43
 90
        3
102
RTVSPost2010PropOp43
 70
     0
102
RTVSPost2010Prop44ColorIndex
 90
        5
102
RTVSPost2010Prop44ColorRGB
 90
      255
102
RTVSPost2010PropOp44
 70
     0
102
RTVSPost2010Prop45
280
     0
102
RTVSPost2010PropOp45
 70
     1
102
RTVSPost2010Prop46
 90
       50
102
RTVSPost2010PropOp46
 70
     0
102
RTVSPost2010Prop47
 90
       50
102
RTVSPost2010PropOp47
 70
     0
102
RTVSPost2010Prop48
 90
       50
102
RTVSPost2010PropOp48
 70
     0
102
RTVSPost2010Prop49
280
     0
102
RTVSPost2010PropOp49
 70
     1
102
RTVSPost2010Prop50
 90
       50
102
RTVSPost2010PropOp50
 70
     0
102
RTVSPost2010Prop51ColorIndex
 90
      256
102
RTVSPost2010Prop51ColorRGB
 90
-16777216
102
RTVSPost2010PropOp51
 70
     0
102
RTVSPost2010Prop52
140
1.0
102
RTVSPost2010PropOp52
 70
     0
102
RTVSPost2010Prop53
 90
        2
102
RTVSPost2010PropOp53
 70
     0
102
RTVSPost2010Prop54
  1
strokes_ogs.tif
102
RTVSPost2010PropOp54
 70
     0
102
RTVSPost2010Prop55
280
     0
102
RTVSPost2010PropOp55
 70
     1
102
RTVSPost2010Prop56
140
1.0
102
RTVSPost2010PropOp56
 70
     0
102
RTVSPost2010Prop57
140
1.0
102
RTVSPost2010PropOp57
 70
     0
102
RTVSPropertyOp0
 70
     0
102
RTVSPropertyOp1
 70
     0
102
RTVSPropertyOp2
 70
     0
102
RTVSPropertyOp3
 70
     0
102
RTVSPropertyOp4
 70
     0
102
RTVSPropertyOp5
 70
     0
102
RTVSPropertyOp6
 70
     0
102
RTVSPropertyOp7
 70
     0
102
RTVSPropertyOp8
 70
     0
102
RTVSPropertyOp9
 70
     0
102
RTVSPropertyOp10
 70
     0
102
RTVSPropertyOp11
 70
     0
102
RTVSPropertyOp12
 70
     0
102
RTVSPropertyOp13
 70
     0
102
RTVSPropertyOp14
 70
     2
102
RTVSPropertyOp15
 70
     0
102
RTVSPropertyOp16
 70
     0
102
RTVSPropertyOp17
 70
     0
102
RTVSPropertyOp18
 70
     0
102
RTVSPropertyOp19
 70
     0
102
RTVSPropertyOp20
 70
     0
102
RTVSPropertyOp21
 70
     0
102
RTVSPropertyOp22
 70
     0
102
RTVSPropertyOp23
 70
     0
102
RTVSPropertyOp24
 70
     0
102
RTVSPropertyOp25
 70
     0
102
RTVSPropertyOp26
 70
     0
102
RTVSPropertyOp27
 70
     0
102
RTVSPropertyOp28
 70
     1
102
RTVSPropertyOp29
 70
     1
102
RTVSPropertyOp30
 70
     1
102
RTVSPropertyOp31
 70
     1
102
RTVSPropertyOp32
 70
     1
102
RTVSPropertyOp33
 70
     1
102
RTVSPropertyOp34
 70
     1
102
RTVSPropertyOp35
 70
     1
102
RTVSPropertyOp36
 70
     1
102
RTVSPropertyOp37
 70
     0
102
RTVSPropertyOp38
 70
     0
102
RTVSPropertyOp39
 70
     0
102
RTVSPropertyOp40
 70
     0
102
RTVSPropertyOp41
 70
     0
102
RTVSPropertyOp42
 70
     0
102
RTVSPropertyOp43
 70
     0
102
RTVSPropertyOp44
 70
     0
102
RTVSPropertyOp45
 70
     1
102
RTVSPropertyOp46
 70
     0
102
RTVSPropertyOp47
 70
     0
102
RTVSPropertyOp48
 70
     0
102
RTVSPropertyOp49
 70
     1
102
RTVSPropertyOp50
 70
     0
102
RTVSPropertyOp51
 70
     0
102
RTVSPropertyOp52
 70
     0
102
RTVSPropertyOp53
 70
     0
102
RTVSPropertyOp54
 70
     0
102
RTVSPropertyOp55
 70
     1
102
RTVSPropertyOp56
 70
     0
102
RTVSPropertyOp57
 70
     0
102
RTVSPropertyOp58
 70
     0
102
RTVSPropertyOp59
 70
     0
102
RTVSPropertyOp60
 70
     0
102
RTVSPropertyOp61
 70
     0
102
RTVSPropertyOp62
 70
     0
  0
XRECORD
  5
49F
102
{ACAD_REACTORS
330
49E
102
}
330
49E
100
AcDbXrecord
280
     1
102
RTVSPost2010Prop28
280
     0
102
RTVSPost2010PropOp28
 70
     1
102
RTVSPost2010Prop29
280
     1
102
RTVSPost2010PropOp29
 70
     1
102
RTVSPost2010Prop30
280
     1
102
RTVSPost2010PropOp30
 70
     1
102
RTVSPost2010Prop31
280
     0
102
RTVSPost2010PropOp31
 70
     1
102
RTVSPost2010Prop32
280
     0
102
RTVSPost2010PropOp32
 70
     1
102
RTVSPost2010Prop33
280
     0
102
RTVSPost2010PropOp33
 70
     1
102
RTVSPost2010Prop34
280
     0
102
RTVSPost2010PropOp34
 70
     1
102
RTVSPost2010Prop35
280
     0
102
RTVSPost2010PropOp35
 70
     1
102
RTVSPost2010Prop36
280
     0
102
RTVSPost2010PropOp36
 70
     1
102
RTVSPost2010Prop37
 90
       50
102
RTVSPost2010PropOp37
 70
     1
102
RTVSPost2010Prop38
140
0.0
102
RTVSPost2010PropOp38
 70
     1
102
RTVSPost2010Prop39
140
1.0
102
RTVSPost2010PropOp39
 70
     1
102
RTVSPost2010Prop40
 90
        0
102
RTVSPost2010PropOp40
 70
     1
102
RTVSPost2010Prop41ColorIndex
 90
       18
102
RTVSPost2010Prop41ColorRGB
 90
        0
102
RTVSPost2010PropOp41
 70
     1
102
RTVSPost2010Prop42
 90
       50
102
RTVSPost2010PropOp42
 70
     1
102
RTVSPost2010Prop43
 90
        3
102
RTVSPost2010PropOp43
 70
     1
102
RTVSPost2010Prop44ColorIndex
 90
        5
102
RTVSPost2010Prop44ColorRGB
 90
      255
102
RTVSPost2010PropOp44
 70
     1
102
RTVSPost2010Prop45
280
     0
102
RTVSPost2010PropOp45
 70
     1
102
RTVSPost2010Prop46
 90
       50
102
RTVSPost2010PropOp46
 70
     1
102
RTVSPost2010Prop47
 90
       50
102
RTVSPost2010PropOp47
 70
     1
102
RTVSPost2010Prop48
 90
       50
102
RTVSPost2010PropOp48
 70
     1
102
RTVSPost2010Prop49
280
     0
102
RTVSPost2010PropOp49
 70
     1
102
RTVSPost2010Prop50
 90
       50
102
RTVSPost2010PropOp50
 70
     1
102
RTVSPost2010Prop51ColorIndex
 90
      256
102
RTVSPost2010Prop51ColorRGB
 90
-16777216
102
RTVSPost2010PropOp51
 70
     0
102
RTVSPost2010Prop52
140
1.0
102
RTVSPost2010PropOp52
 70
     0
102
RTVSPost2010Prop53
 90
        2
102
RTVSPost2010PropOp53
 70
     1
102
RTVSPost2010Prop54
  1
strokes_ogs.tif
102
RTVSPost2010PropOp54
 70
     1
102
RTVSPost2010Prop55
280
     0
102
RTVSPost2010PropOp55
 70
     1
102
RTVSPost2010Prop56
140
1.0
102
RTVSPost2010PropOp56
 70
     1
102
RTVSPost2010Prop57
140
1.0
102
RTVSPost2010PropOp57
 70
     1
102
RTVSPropertyOp0
 70
     1
102
RTVSPropertyOp1
 70
     1
102
RTVSPropertyOp2
 70
     1
102
RTVSPropertyOp3
 70
     1
102
RTVSPropertyOp4
 70
     1
102
RTVSPropertyOp5
 70
     1
102
RTVSPropertyOp6
 70
     1
102
RTVSPropertyOp7
 70
     1
102
RTVSPropertyOp8
 70
     1
102
RTVSPropertyOp9
 70
     1
102
RTVSPropertyOp10
 70
     1
102
RTVSPropertyOp11
 70
     1
102
RTVSPropertyOp12
 70
     1
102
RTVSPropertyOp13
 70
     1
102
RTVSPropertyOp14
 70
     1
102
RTVSPropertyOp15
 70
     1
102
RTVSPropertyOp16
 70
     1
102
RTVSPropertyOp17
 70
     1
102
RTVSPropertyOp18
 70
     1
102
RTVSPropertyOp19
 70
     1
102
RTVSPropertyOp20
 70
     1
102
RTVSPropertyOp21
 70
     1
102
RTVSPropertyOp22
 70
     1
102
RTVSPropertyOp23
 70
     1
102
RTVSPropertyOp24
 70
     1
102
RTVSPropertyOp25
 70
     1
102
RTVSPropertyOp26
 70
     1
102
RTVSPropertyOp27
 70
     1
102
RTVSPropertyOp28
 70
     1
102
RTVSPropertyOp29
 70
     1
102
RTVSPropertyOp30
 70
     1
102
RTVSPropertyOp31
 70
     1
102
RTVSPropertyOp32
 70
     1
102
RTVSPropertyOp33
 70
     1
102
RTVSPropertyOp34
 70
     1
102
RTVSPropertyOp35
 70
     1
102
RTVSPropertyOp36
 70
     1
102
RTVSPropertyOp37
 70
     1
102
RTVSPropertyOp38
 70
     1
102
RTVSPropertyOp39
 70
     1
102
RTVSPropertyOp40
 70
     1
102
RTVSPropertyOp41
 70
     1
102
RTVSPropertyOp42
 70
     1
102
RTVSPropertyOp43
 70
     1
102
RTVSPropertyOp44
 70
     1
102
RTVSPropertyOp45
 70
     1
102
RTVSPropertyOp46
 70
     1
102
RTVSPropertyOp47
 70
     1
102
RTVSPropertyOp48
 70
     1
102
RTVSPropertyOp49
 70
     1
102
RTVSPropertyOp50
 70
     1
102
RTVSPropertyOp51
 70
     0
102
RTVSPropertyOp52
 70
     0
102
RTVSPropertyOp53
 70
     1
102
RTVSPropertyOp54
 70
     1
102
RTVSPropertyOp55
 70
     1
102
RTVSPropertyOp56
 70
     1
102
RTVSPropertyOp57
 70
     1
102
RTVSPropertyOp58
 70
     1
102
RTVSPropertyOp59
 70
     1
102
RTVSPropertyOp60
 70
     1
102
RTVSPropertyOp61
 70
     1
102
RTVSPropertyOp62
 70
     1
  0
XRECORD
  5
4B5
102
{ACAD_REACTORS
330
4B4
102
}
330
4B4
100
AcDbXrecord
280
     1
102
RTVSPost2010Prop28
280
     0
102
RTVSPost2010PropOp28
 70
     1
102
RTVSPost2010Prop29
280
     1
102
RTVSPost2010PropOp29
 70
     1
102
RTVSPost2010Prop30
280
     1
102
RTVSPost2010PropOp30
 70
     1
102
RTVSPost2010Prop31
280
     0
102
RTVSPost2010PropOp31
 70
     1
102
RTVSPost2010Prop32
280
     0
102
RTVSPost2010PropOp32
 70
     1
102
RTVSPost2010Prop33
280
     0
102
RTVSPost2010PropOp33
 70
     1
102
RTVSPost2010Prop34
280
     0
102
RTVSPost2010PropOp34
 70
     1
102
RTVSPost2010Prop35
280
     0
102
RTVSPost2010PropOp35
 70
     1
102
RTVSPost2010Prop36
280
     0
102
RTVSPost2010PropOp36
 70
     1
102
RTVSPost2010Prop37
 90
       50
102
RTVSPost2010PropOp37
 70
     1
102
RTVSPost2010Prop38
140
0.0
102
RTVSPost2010PropOp38
 70
     1
102
RTVSPost2010Prop39
140
1.0
102
RTVSPost2010PropOp39
 70
     1
102
RTVSPost2010Prop40
 90
        0
102
RTVSPost2010PropOp40
 70
     1
102
RTVSPost2010Prop41ColorIndex
 90
       18
102
RTVSPost2010Prop41ColorRGB
 90
        0
102
RTVSPost2010PropOp41
 70
     1
102
RTVSPost2010Prop42
 90
       50
102
RTVSPost2010PropOp42
 70
     1
102
RTVSPost2010Prop43
 90
        3
102
RTVSPost2010PropOp43
 70
     1
102
RTVSPost2010Prop44ColorIndex
 90
        5
102
RTVSPost2010Prop44ColorRGB
 90
      255
102
RTVSPost2010PropOp44
 70
     1
102
RTVSPost2010Prop45
280
     0
102
RTVSPost2010PropOp45
 70
     1
102
RTVSPost2010Prop46
 90
       50
102
RTVSPost2010PropOp46
 70
     1
102
RTVSPost2010Prop47
 90
       50
102
RTVSPost2010PropOp47
 70
     1
102
RTVSPost2010Prop48
 90
       50
102
RTVSPost2010PropOp48
 70
     1
102
RTVSPost2010Prop49
280
     0
102
RTVSPost2010PropOp49
 70
     1
102
RTVSPost2010Prop50
 90
       50
102
RTVSPost2010PropOp50
 70
     1
102
RTVSPost2010Prop51ColorIndex
 90
      256
102
RTVSPost2010Prop51ColorRGB
 90
-16777216
102
RTVSPost2010PropOp51
 70
     0
102
RTVSPost2010Prop52
140
1.0
102
RTVSPost2010PropOp52
 70
     0
102
RTVSPost2010Prop53
 90
        2
102
RTVSPost2010PropOp53
 70
     1
102
RTVSPost2010Prop54
  1
strokes_ogs.tif
102
RTVSPost2010PropOp54
 70
     1
102
RTVSPost2010Prop55
280
     0
102
RTVSPost2010PropOp55
 70
     1
102
RTVSPost2010Prop56
140
1.0
102
RTVSPost2010PropOp56
 70
     1
102
RTVSPost2010Prop57
140
1.0
102
RTVSPost2010PropOp57
 70
     1
102
RTVSPropertyOp0
 70
     1
102
RTVSPropertyOp1
 70
     1
102
RTVSPropertyOp2
 70
     1
102
RTVSPropertyOp3
 70
     1
102
RTVSPropertyOp4
 70
     1
102
RTVSPropertyOp5
 70
     1
102
RTVSPropertyOp6
 70
     1
102
RTVSPropertyOp7
 70
     1
102
RTVSPropertyOp8
 70
     1
102
RTVSPropertyOp9
 70
     1
102
RTVSPropertyOp10
 70
     1
102
RTVSPropertyOp11
 70
     1
102
RTVSPropertyOp12
 70
     1
102
RTVSPropertyOp13
 70
     1
102
RTVSPropertyOp14
 70
     1
102
RTVSPropertyOp15
 70
     1
102
RTVSPropertyOp16
 70
     1
102
RTVSPropertyOp17
 70
     1
102
RTVSPropertyOp18
 70
     1
102
RTVSPropertyOp19
 70
     1
102
RTVSPropertyOp20
 70
     1
102
RTVSPropertyOp21
 70
     1
102
RTVSPropertyOp22
 70
     1
102
RTVSPropertyOp23
 70
     1
102
RTVSPropertyOp24
 70
     1
102
RTVSPropertyOp25
 70
     1
102
RTVSPropertyOp26
 70
     1
102
RTVSPropertyOp27
 70
     1
102
RTVSPropertyOp28
 70
     1
102
RTVSPropertyOp29
 70
     1
102
RTVSPropertyOp30
 70
     1
102
RTVSPropertyOp31
 70
     1
102
RTVSPropertyOp32
 70
     1
102
RTVSPropertyOp33
 70
     1
102
RTVSPropertyOp34
 70
     1
102
RTVSPropertyOp35
 70
     1
102
RTVSPropertyOp36
 70
     1
102
RTVSPropertyOp37
 70
     1
102
RTVSPropertyOp38
 70
     1
102
RTVSPropertyOp39
 70
     1
102
RTVSPropertyOp40
 70
     1
102
RTVSPropertyOp41
 70
     1
102
RTVSPropertyOp42
 70
     1
102
RTVSPropertyOp43
 70
     1
102
RTVSPropertyOp44
 70
     1
102
RTVSPropertyOp45
 70
     1
102
RTVSPropertyOp46
 70
     1
102
RTVSPropertyOp47
 70
     1
102
RTVSPropertyOp48
 70
     1
102
RTVSPropertyOp49
 70
     1
102
RTVSPropertyOp50
 70
     1
102
RTVSPropertyOp51
 70
     0
102
RTVSPropertyOp52
 70
     0
102
RTVSPropertyOp53
 70
     1
102
RTVSPropertyOp54
 70
     1
102
RTVSPropertyOp55
 70
     1
102
RTVSPropertyOp56
 70
     1
102
RTVSPropertyOp57
 70
     1
102
RTVSPropertyOp58
 70
     1
102
RTVSPropertyOp59
 70
     1
102
RTVSPropertyOp60
 70
     1
102
RTVSPropertyOp61
 70
     1
102
RTVSPropertyOp62
 70
     1
  0
XRECORD
  5
4B3
102
{ACAD_REACTORS
330
4B2
102
}
330
4B2
100
AcDbXrecord
280
     1
102
RTVSPost2010Prop28
280
     0
102
RTVSPost2010PropOp28
 70
     1
102
RTVSPost2010Prop29
280
     1
102
RTVSPost2010PropOp29
 70
     1
102
RTVSPost2010Prop30
280
     1
102
RTVSPost2010PropOp30
 70
     1
102
RTVSPost2010Prop31
280
     0
102
RTVSPost2010PropOp31
 70
     1
102
RTVSPost2010Prop32
280
     0
102
RTVSPost2010PropOp32
 70
     1
102
RTVSPost2010Prop33
280
     0
102
RTVSPost2010PropOp33
 70
     1
102
RTVSPost2010Prop34
280
     0
102
RTVSPost2010PropOp34
 70
     1
102
RTVSPost2010Prop35
280
     0
102
RTVSPost2010PropOp35
 70
     1
102
RTVSPost2010Prop36
280
     0
102
RTVSPost2010PropOp36
 70
     1
102
RTVSPost2010Prop37
 90
       50
102
RTVSPost2010PropOp37
 70
     1
102
RTVSPost2010Prop38
140
0.0
102
RTVSPost2010PropOp38
 70
     1
102
RTVSPost2010Prop39
140
1.0
102
RTVSPost2010PropOp39
 70
     1
102
RTVSPost2010Prop40
 90
        0
102
RTVSPost2010PropOp40
 70
     1
102
RTVSPost2010Prop41ColorIndex
 90
       18
102
RTVSPost2010Prop41ColorRGB
 90
        0
102
RTVSPost2010PropOp41
 70
     1
102
RTVSPost2010Prop42
 90
       50
102
RTVSPost2010PropOp42
 70
     1
102
RTVSPost2010Prop43
 90
        3
102
RTVSPost2010PropOp43
 70
     1
102
RTVSPost2010Prop44ColorIndex
 90
        5
102
RTVSPost2010Prop44ColorRGB
 90
      255
102
RTVSPost2010PropOp44
 70
     1
102
RTVSPost2010Prop45
280
     0
102
RTVSPost2010PropOp45
 70
     1
102
RTVSPost2010Prop46
 90
       50
102
RTVSPost2010PropOp46
 70
     1
102
RTVSPost2010Prop47
 90
       50
102
RTVSPost2010PropOp47
 70
     1
102
RTVSPost2010Prop48
 90
       50
102
RTVSPost2010PropOp48
 70
     1
102
RTVSPost2010Prop49
280
     0
102
RTVSPost2010PropOp49
 70
     1
102
RTVSPost2010Prop50
 90
       50
102
RTVSPost2010PropOp50
 70
     1
102
RTVSPost2010Prop51ColorIndex
 90
      256
102
RTVSPost2010Prop51ColorRGB
 90
-16777216
102
RTVSPost2010PropOp51
 70
     0
102
RTVSPost2010Prop52
140
1.0
102
RTVSPost2010PropOp52
 70
     0
102
RTVSPost2010Prop53
 90
        2
102
RTVSPost2010PropOp53
 70
     1
102
RTVSPost2010Prop54
  1
strokes_ogs.tif
102
RTVSPost2010PropOp54
 70
     1
102
RTVSPost2010Prop55
280
     0
102
RTVSPost2010PropOp55
 70
     1
102
RTVSPost2010Prop56
140
1.0
102
RTVSPost2010PropOp56
 70
     1
102
RTVSPost2010Prop57
140
1.0
102
RTVSPost2010PropOp57
 70
     1
102
RTVSPropertyOp0
 70
     1
102
RTVSPropertyOp1
 70
     1
102
RTVSPropertyOp2
 70
     1
102
RTVSPropertyOp3
 70
     1
102
RTVSPropertyOp4
 70
     1
102
RTVSPropertyOp5
 70
     1
102
RTVSPropertyOp6
 70
     1
102
RTVSPropertyOp7
 70
     1
102
RTVSPropertyOp8
 70
     1
102
RTVSPropertyOp9
 70
     1
102
RTVSPropertyOp10
 70
     1
102
RTVSPropertyOp11
 70
     1
102
RTVSPropertyOp12
 70
     1
102
RTVSPropertyOp13
 70
     1
102
RTVSPropertyOp14
 70
     1
102
RTVSPropertyOp15
 70
     1
102
RTVSPropertyOp16
 70
     1
102
RTVSPropertyOp17
 70
     1
102
RTVSPropertyOp18
 70
     1
102
RTVSPropertyOp19
 70
     1
102
RTVSPropertyOp20
 70
     1
102
RTVSPropertyOp21
 70
     1
102
RTVSPropertyOp22
 70
     1
102
RTVSPropertyOp23
 70
     1
102
RTVSPropertyOp24
 70
     1
102
RTVSPropertyOp25
 70
     1
102
RTVSPropertyOp26
 70
     1
102
RTVSPropertyOp27
 70
     1
102
RTVSPropertyOp28
 70
     1
102
RTVSPropertyOp29
 70
     1
102
RTVSPropertyOp30
 70
     1
102
RTVSPropertyOp31
 70
     1
102
RTVSPropertyOp32
 70
     1
102
RTVSPropertyOp33
 70
     1
102
RTVSPropertyOp34
 70
     1
102
RTVSPropertyOp35
 70
     1
102
RTVSPropertyOp36
 70
     1
102
RTVSPropertyOp37
 70
     1
102
RTVSPropertyOp38
 70
     1
102
RTVSPropertyOp39
 70
     1
102
RTVSPropertyOp40
 70
     1
102
RTVSPropertyOp41
 70
     1
102
RTVSPropertyOp42
 70
     1
102
RTVSPropertyOp43
 70
     1
102
RTVSPropertyOp44
 70
     1
102
RTVSPropertyOp45
 70
     1
102
RTVSPropertyOp46
 70
     1
102
RTVSPropertyOp47
 70
     1
102
RTVSPropertyOp48
 70
     1
102
RTVSPropertyOp49
 70
     1
102
RTVSPropertyOp50
 70
     1
102
RTVSPropertyOp51
 70
     0
102
RTVSPropertyOp52
 70
     0
102
RTVSPropertyOp53
 70
     1
102
RTVSPropertyOp54
 70
     1
102
RTVSPropertyOp55
 70
     1
102
RTVSPropertyOp56
 70
     1
102
RTVSPropertyOp57
 70
     1
102
RTVSPropertyOp58
 70
     1
102
RTVSPropertyOp59
 70
     1
102
RTVSPropertyOp60
 70
     1
102
RTVSPropertyOp61
 70
     1
102
RTVSPropertyOp62
 70
     1
  0
XRECORD
  5
4AD
102
{ACAD_REACTORS
330
4AC
102
}
330
4AC
100
AcDbXrecord
280
     1
102
RTVSPost2010Prop28
280
     0
102
RTVSPost2010PropOp28
 70
     1
102
RTVSPost2010Prop29
280
     1
102
RTVSPost2010PropOp29
 70
     1
102
RTVSPost2010Prop30
280
     1
102
RTVSPost2010PropOp30
 70
     1
102
RTVSPost2010Prop31
280
     0
102
RTVSPost2010PropOp31
 70
     1
102
RTVSPost2010Prop32
280
     0
102
RTVSPost2010PropOp32
 70
     1
102
RTVSPost2010Prop33
280
     0
102
RTVSPost2010PropOp33
 70
     1
102
RTVSPost2010Prop34
280
     0
102
RTVSPost2010PropOp34
 70
     1
102
RTVSPost2010Prop35
280
     0
102
RTVSPost2010PropOp35
 70
     1
102
RTVSPost2010Prop36
280
     0
102
RTVSPost2010PropOp36
 70
     1
102
RTVSPost2010Prop37
 90
       50
102
RTVSPost2010PropOp37
 70
     1
102
RTVSPost2010Prop38
140
0.0
102
RTVSPost2010PropOp38
 70
     1
102
RTVSPost2010Prop39
140
1.0
102
RTVSPost2010PropOp39
 70
     1
102
RTVSPost2010Prop40
 90
        0
102
RTVSPost2010PropOp40
 70
     1
102
RTVSPost2010Prop41ColorIndex
 90
       18
102
RTVSPost2010Prop41ColorRGB
 90
        0
102
RTVSPost2010PropOp41
 70
     1
102
RTVSPost2010Prop42
 90
       50
102
RTVSPost2010PropOp42
 70
     1
102
RTVSPost2010Prop43
 90
        3
102
RTVSPost2010PropOp43
 70
     1
102
RTVSPost2010Prop44ColorIndex
 90
        5
102
RTVSPost2010Prop44ColorRGB
 90
      255
102
RTVSPost2010PropOp44
 70
     1
102
RTVSPost2010Prop45
280
     0
102
RTVSPost2010PropOp45
 70
     1
102
RTVSPost2010Prop46
 90
       50
102
RTVSPost2010PropOp46
 70
     1
102
RTVSPost2010Prop47
 90
       50
102
RTVSPost2010PropOp47
 70
     1
102
RTVSPost2010Prop48
 90
       50
102
RTVSPost2010PropOp48
 70
     1
102
RTVSPost2010Prop49
280
     0
102
RTVSPost2010PropOp49
 70
     1
102
RTVSPost2010Prop50
 90
       50
102
RTVSPost2010PropOp50
 70
     1
102
RTVSPost2010Prop51ColorIndex
 90
      256
102
RTVSPost2010Prop51ColorRGB
 90
-16777216
102
RTVSPost2010PropOp51
 70
     0
102
RTVSPost2010Prop52
140
1.0
102
RTVSPost2010PropOp52
 70
     0
102
RTVSPost2010Prop53
 90
        2
102
RTVSPost2010PropOp53
 70
     1
102
RTVSPost2010Prop54
  1
strokes_ogs.tif
102
RTVSPost2010PropOp54
 70
     1
102
RTVSPost2010Prop55
280
     0
102
RTVSPost2010PropOp55
 70
     1
102
RTVSPost2010Prop56
140
1.0
102
RTVSPost2010PropOp56
 70
     1
102
RTVSPost2010Prop57
140
1.0
102
RTVSPost2010PropOp57
 70
     1
102
RTVSPropertyOp0
 70
     1
102
RTVSPropertyOp1
 70
     1
102
RTVSPropertyOp2
 70
     1
102
RTVSPropertyOp3
 70
     1
102
RTVSPropertyOp4
 70
     1
102
RTVSPropertyOp5
 70
     1
102
RTVSPropertyOp6
 70
     1
102
RTVSPropertyOp7
 70
     1
102
RTVSPropertyOp8
 70
     1
102
RTVSPropertyOp9
 70
     1
102
RTVSPropertyOp10
 70
     1
102
RTVSPropertyOp11
 70
     1
102
RTVSPropertyOp12
 70
     1
102
RTVSPropertyOp13
 70
     1
102
RTVSPropertyOp14
 70
     1
102
RTVSPropertyOp15
 70
     1
102
RTVSPropertyOp16
 70
     1
102
RTVSPropertyOp17
 70
     1
102
RTVSPropertyOp18
 70
     1
102
RTVSPropertyOp19
 70
     1
102
RTVSPropertyOp20
 70
     1
102
RTVSPropertyOp21
 70
     1
102
RTVSPropertyOp22
 70
     1
102
RTVSPropertyOp23
 70
     1
102
RTVSPropertyOp24
 70
     1
102
RTVSPropertyOp25
 70
     1
102
RTVSPropertyOp26
 70
     1
102
RTVSPropertyOp27
 70
     1
102
RTVSPropertyOp28
 70
     1
102
RTVSPropertyOp29
 70
     1
102
RTVSPropertyOp30
 70
     1
102
RTVSPropertyOp31
 70
     1
102
RTVSPropertyOp32
 70
     1
102
RTVSPropertyOp33
 70
     1
102
RTVSPropertyOp34
 70
     1
102
RTVSPropertyOp35
 70
     1
102
RTVSPropertyOp36
 70
     1
102
RTVSPropertyOp37
 70
     1
102
RTVSPropertyOp38
 70
     1
102
RTVSPropertyOp39
 70
     1
102
RTVSPropertyOp40
 70
     1
102
RTVSPropertyOp41
 70
     1
102
RTVSPropertyOp42
 70
     1
102
RTVSPropertyOp43
 70
     1
102
RTVSPropertyOp44
 70
     1
102
RTVSPropertyOp45
 70
     1
102
RTVSPropertyOp46
 70
     1
102
RTVSPropertyOp47
 70
     1
102
RTVSPropertyOp48
 70
     1
102
RTVSPropertyOp49
 70
     1
102
RTVSPropertyOp50
 70
     1
102
RTVSPropertyOp51
 70
     0
102
RTVSPropertyOp52
 70
     0
102
RTVSPropertyOp53
 70
     1
102
RTVSPropertyOp54
 70
     1
102
RTVSPropertyOp55
 70
     1
102
RTVSPropertyOp56
 70
     1
102
RTVSPropertyOp57
 70
     1
102
RTVSPropertyOp58
 70
     1
102
RTVSPropertyOp59
 70
     1
102
RTVSPropertyOp60
 70
     1
102
RTVSPropertyOp61
 70
     1
102
RTVSPropertyOp62
 70
     1
  0
XRECORD
  5
4AF
102
{ACAD_REACTORS
330
4AE
102
}
330
4AE
100
AcDbXrecord
280
     1
102
RTVSPost2010Prop28
280
     0
102
RTVSPost2010PropOp28
 70
     1
102
RTVSPost2010Prop29
280
     1
102
RTVSPost2010PropOp29
 70
     1
102
RTVSPost2010Prop30
280
     1
102
RTVSPost2010PropOp30
 70
     1
102
RTVSPost2010Prop31
280
     0
102
RTVSPost2010PropOp31
 70
     1
102
RTVSPost2010Prop32
280
     0
102
RTVSPost2010PropOp32
 70
     1
102
RTVSPost2010Prop33
280
     0
102
RTVSPost2010PropOp33
 70
     1
102
RTVSPost2010Prop34
280
     0
102
RTVSPost2010PropOp34
 70
     1
102
RTVSPost2010Prop35
280
     0
102
RTVSPost2010PropOp35
 70
     1
102
RTVSPost2010Prop36
280
     0
102
RTVSPost2010PropOp36
 70
     1
102
RTVSPost2010Prop37
 90
       50
102
RTVSPost2010PropOp37
 70
     1
102
RTVSPost2010Prop38
140
0.0
102
RTVSPost2010PropOp38
 70
     1
102
RTVSPost2010Prop39
140
1.0
102
RTVSPost2010PropOp39
 70
     1
102
RTVSPost2010Prop40
 90
        0
102
RTVSPost2010PropOp40
 70
     1
102
RTVSPost2010Prop41ColorIndex
 90
       18
102
RTVSPost2010Prop41ColorRGB
 90
        0
102
RTVSPost2010PropOp41
 70
     1
102
RTVSPost2010Prop42
 90
       50
102
RTVSPost2010PropOp42
 70
     1
102
RTVSPost2010Prop43
 90
        3
102
RTVSPost2010PropOp43
 70
     1
102
RTVSPost2010Prop44ColorIndex
 90
        5
102
RTVSPost2010Prop44ColorRGB
 90
      255
102
RTVSPost2010PropOp44
 70
     1
102
RTVSPost2010Prop45
280
     0
102
RTVSPost2010PropOp45
 70
     1
102
RTVSPost2010Prop46
 90
       50
102
RTVSPost2010PropOp46
 70
     1
102
RTVSPost2010Prop47
 90
       50
102
RTVSPost2010PropOp47
 70
     1
102
RTVSPost2010Prop48
 90
       50
102
RTVSPost2010PropOp48
 70
     1
102
RTVSPost2010Prop49
280
     0
102
RTVSPost2010PropOp49
 70
     1
102
RTVSPost2010Prop50
 90
       50
102
RTVSPost2010PropOp50
 70
     1
102
RTVSPost2010Prop51ColorIndex
 90
      256
102
RTVSPost2010Prop51ColorRGB
 90
-16777216
102
RTVSPost2010PropOp51
 70
     0
102
RTVSPost2010Prop52
140
1.0
102
RTVSPost2010PropOp52
 70
     0
102
RTVSPost2010Prop53
 90
        2
102
RTVSPost2010PropOp53
 70
     1
102
RTVSPost2010Prop54
  1
strokes_ogs.tif
102
RTVSPost2010PropOp54
 70
     1
102
RTVSPost2010Prop55
280
     0
102
RTVSPost2010PropOp55
 70
     1
102
RTVSPost2010Prop56
140
1.0
102
RTVSPost2010PropOp56
 70
     1
102
RTVSPost2010Prop57
140
1.0
102
RTVSPost2010PropOp57
 70
     1
102
RTVSPropertyOp0
 70
     1
102
RTVSPropertyOp1
 70
     1
102
RTVSPropertyOp2
 70
     1
102
RTVSPropertyOp3
 70
     1
102
RTVSPropertyOp4
 70
     1
102
RTVSPropertyOp5
 70
     1
102
RTVSPropertyOp6
 70
     1
102
RTVSPropertyOp7
 70
     1
102
RTVSPropertyOp8
 70
     1
102
RTVSPropertyOp9
 70
     1
102
RTVSPropertyOp10
 70
     1
102
RTVSPropertyOp11
 70
     1
102
RTVSPropertyOp12
 70
     1
102
RTVSPropertyOp13
 70
     1
102
RTVSPropertyOp14
 70
     1
102
RTVSPropertyOp15
 70
     1
102
RTVSPropertyOp16
 70
     1
102
RTVSPropertyOp17
 70
     1
102
RTVSPropertyOp18
 70
     1
102
RTVSPropertyOp19
 70
     1
102
RTVSPropertyOp20
 70
     1
102
RTVSPropertyOp21
 70
     1
102
RTVSPropertyOp22
 70
     1
102
RTVSPropertyOp23
 70
     1
102
RTVSPropertyOp24
 70
     1
102
RTVSPropertyOp25
 70
     1
102
RTVSPropertyOp26
 70
     1
102
RTVSPropertyOp27
 70
     1
102
RTVSPropertyOp28
 70
     1
102
RTVSPropertyOp29
 70
     1
102
RTVSPropertyOp30
 70
     1
102
RTVSPropertyOp31
 70
     1
102
RTVSPropertyOp32
 70
     1
102
RTVSPropertyOp33
 70
     1
102
RTVSPropertyOp34
 70
     1
102
RTVSPropertyOp35
 70
     1
102
RTVSPropertyOp36
 70
     1
102
RTVSPropertyOp37
 70
     1
102
RTVSPropertyOp38
 70
     1
102
RTVSPropertyOp39
 70
     1
102
RTVSPropertyOp40
 70
     1
102
RTVSPropertyOp41
 70
     1
102
RTVSPropertyOp42
 70
     1
102
RTVSPropertyOp43
 70
     1
102
RTVSPropertyOp44
 70
     1
102
RTVSPropertyOp45
 70
     1
102
RTVSPropertyOp46
 70
     1
102
RTVSPropertyOp47
 70
     1
102
RTVSPropertyOp48
 70
     1
102
RTVSPropertyOp49
 70
     1
102
RTVSPropertyOp50
 70
     1
102
RTVSPropertyOp51
 70
     0
102
RTVSPropertyOp52
 70
     0
102
RTVSPropertyOp53
 70
     1
102
RTVSPropertyOp54
 70
     1
102
RTVSPropertyOp55
 70
     1
102
RTVSPropertyOp56
 70
     1
102
RTVSPropertyOp57
 70
     1
102
RTVSPropertyOp58
 70
     1
102
RTVSPropertyOp59
 70
     1
102
RTVSPropertyOp60
 70
     1
102
RTVSPropertyOp61
 70
     1
102
RTVSPropertyOp62
 70
     1
  0
XRECORD
  5
4A5
102
{ACAD_REACTORS
330
4A4
102
}
330
4A4
100
AcDbXrecord
280
     1
102
RTVSPost2010Prop28
280
     0
102
RTVSPost2010PropOp28
 70
     1
102
RTVSPost2010Prop29
280
     1
102
RTVSPost2010PropOp29
 70
     1
102
RTVSPost2010Prop30
280
     1
102
RTVSPost2010PropOp30
 70
     1
102
RTVSPost2010Prop31
280
     0
102
RTVSPost2010PropOp31
 70
     1
102
RTVSPost2010Prop32
280
     0
102
RTVSPost2010PropOp32
 70
     1
102
RTVSPost2010Prop33
280
     0
102
RTVSPost2010PropOp33
 70
     1
102
RTVSPost2010Prop34
280
     0
102
RTVSPost2010PropOp34
 70
     1
102
RTVSPost2010Prop35
280
     0
102
RTVSPost2010PropOp35
 70
     1
102
RTVSPost2010Prop36
280
     0
102
RTVSPost2010PropOp36
 70
     1
102
RTVSPost2010Prop37
 90
       50
102
RTVSPost2010PropOp37
 70
     1
102
RTVSPost2010Prop38
140
0.0
102
RTVSPost2010PropOp38
 70
     1
102
RTVSPost2010Prop39
140
1.0
102
RTVSPost2010PropOp39
 70
     1
102
RTVSPost2010Prop40
 90
        0
102
RTVSPost2010PropOp40
 70
     1
102
RTVSPost2010Prop41ColorIndex
 90
       18
102
RTVSPost2010Prop41ColorRGB
 90
        0
102
RTVSPost2010PropOp41
 70
     1
102
RTVSPost2010Prop42
 90
       50
102
RTVSPost2010PropOp42
 70
     1
102
RTVSPost2010Prop43
 90
        3
102
RTVSPost2010PropOp43
 70
     1
102
RTVSPost2010Prop44ColorIndex
 90
        5
102
RTVSPost2010Prop44ColorRGB
 90
      255
102
RTVSPost2010PropOp44
 70
     1
102
RTVSPost2010Prop45
280
     0
102
RTVSPost2010PropOp45
 70
     1
102
RTVSPost2010Prop46
 90
       50
102
RTVSPost2010PropOp46
 70
     1
102
RTVSPost2010Prop47
 90
       50
102
RTVSPost2010PropOp47
 70
     1
102
RTVSPost2010Prop48
 90
       50
102
RTVSPost2010PropOp48
 70
     1
102
RTVSPost2010Prop49
280
     0
102
RTVSPost2010PropOp49
 70
     1
102
RTVSPost2010Prop50
 90
       50
102
RTVSPost2010PropOp50
 70
     1
102
RTVSPost2010Prop51ColorIndex
 90
      256
102
RTVSPost2010Prop51ColorRGB
 90
-16777216
102
RTVSPost2010PropOp51
 70
     0
102
RTVSPost2010Prop52
140
1.0
102
RTVSPost2010PropOp52
 70
     0
102
RTVSPost2010Prop53
 90
        2
102
RTVSPost2010PropOp53
 70
     1
102
RTVSPost2010Prop54
  1
strokes_ogs.tif
102
RTVSPost2010PropOp54
 70
     1
102
RTVSPost2010Prop55
280
     0
102
RTVSPost2010PropOp55
 70
     1
102
RTVSPost2010Prop56
140
1.0
102
RTVSPost2010PropOp56
 70
     1
102
RTVSPost2010Prop57
140
1.0
102
RTVSPost2010PropOp57
 70
     1
102
RTVSPropertyOp0
 70
     1
102
RTVSPropertyOp1
 70
     1
102
RTVSPropertyOp2
 70
     1
102
RTVSPropertyOp3
 70
     1
102
RTVSPropertyOp4
 70
     1
102
RTVSPropertyOp5
 70
     1
102
RTVSPropertyOp6
 70
     1
102
RTVSPropertyOp7
 70
     1
102
RTVSPropertyOp8
 70
     1
102
RTVSPropertyOp9
 70
     1
102
RTVSPropertyOp10
 70
     1
102
RTVSPropertyOp11
 70
     1
102
RTVSPropertyOp12
 70
     1
102
RTVSPropertyOp13
 70
     1
102
RTVSPropertyOp14
 70
     1
102
RTVSPropertyOp15
 70
     1
102
RTVSPropertyOp16
 70
     1
102
RTVSPropertyOp17
 70
     1
102
RTVSPropertyOp18
 70
     1
102
RTVSPropertyOp19
 70
     1
102
RTVSPropertyOp20
 70
     1
102
RTVSPropertyOp21
 70
     1
102
RTVSPropertyOp22
 70
     1
102
RTVSPropertyOp23
 70
     1
102
RTVSPropertyOp24
 70
     1
102
RTVSPropertyOp25
 70
     1
102
RTVSPropertyOp26
 70
     1
102
RTVSPropertyOp27
 70
     1
102
RTVSPropertyOp28
 70
     1
102
RTVSPropertyOp29
 70
     1
102
RTVSPropertyOp30
 70
     1
102
RTVSPropertyOp31
 70
     1
102
RTVSPropertyOp32
 70
     1
102
RTVSPropertyOp33
 70
     1
102
RTVSPropertyOp34
 70
     1
102
RTVSPropertyOp35
 70
     1
102
RTVSPropertyOp36
 70
     1
102
RTVSPropertyOp37
 70
     1
102
RTVSPropertyOp38
 70
     1
102
RTVSPropertyOp39
 70
     1
102
RTVSPropertyOp40
 70
     1
102
RTVSPropertyOp41
 70
     1
102
RTVSPropertyOp42
 70
     1
102
RTVSPropertyOp43
 70
     1
102
RTVSPropertyOp44
 70
     1
102
RTVSPropertyOp45
 70
     1
102
RTVSPropertyOp46
 70
     1
102
RTVSPropertyOp47
 70
     1
102
RTVSPropertyOp48
 70
     1
102
RTVSPropertyOp49
 70
     1
102
RTVSPropertyOp50
 70
     1
102
RTVSPropertyOp51
 70
     0
102
RTVSPropertyOp52
 70
     0
102
RTVSPropertyOp53
 70
     1
102
RTVSPropertyOp54
 70
     1
102
RTVSPropertyOp55
 70
     1
102
RTVSPropertyOp56
 70
     1
102
RTVSPropertyOp57
 70
     1
102
RTVSPropertyOp58
 70
     1
102
RTVSPropertyOp59
 70
     1
102
RTVSPropertyOp60
 70
     1
102
RTVSPropertyOp61
 70
     1
102
RTVSPropertyOp62
 70
     1
  0
XRECORD
  5
499
102
{ACAD_REACTORS
330
498
102
}
330
498
100
AcDbXrecord
280
     1
102
RTVSPost2010Prop28
280
     0
102
RTVSPost2010PropOp28
 70
     1
102
RTVSPost2010Prop29
280
     1
102
RTVSPost2010PropOp29
 70
     1
102
RTVSPost2010Prop30
280
     1
102
RTVSPost2010PropOp30
 70
     1
102
RTVSPost2010Prop31
280
     0
102
RTVSPost2010PropOp31
 70
     1
102
RTVSPost2010Prop32
280
     0
102
RTVSPost2010PropOp32
 70
     1
102
RTVSPost2010Prop33
280
     0
102
RTVSPost2010PropOp33
 70
     1
102
RTVSPost2010Prop34
280
     0
102
RTVSPost2010PropOp34
 70
     1
102
RTVSPost2010Prop35
280
     0
102
RTVSPost2010PropOp35
 70
     1
102
RTVSPost2010Prop36
280
     0
102
RTVSPost2010PropOp36
 70
     1
102
RTVSPost2010Prop37
 90
       50
102
RTVSPost2010PropOp37
 70
     1
102
RTVSPost2010Prop38
140
0.0
102
RTVSPost2010PropOp38
 70
     1
102
RTVSPost2010Prop39
140
1.0
102
RTVSPost2010PropOp39
 70
     1
102
RTVSPost2010Prop40
 90
        0
102
RTVSPost2010PropOp40
 70
     1
102
RTVSPost2010Prop41ColorIndex
 90
       18
102
RTVSPost2010Prop41ColorRGB
 90
        0
102
RTVSPost2010PropOp41
 70
     1
102
RTVSPost2010Prop42
 90
       50
102
RTVSPost2010PropOp42
 70
     1
102
RTVSPost2010Prop43
 90
        3
102
RTVSPost2010PropOp43
 70
     1
102
RTVSPost2010Prop44ColorIndex
 90
        5
102
RTVSPost2010Prop44ColorRGB
 90
      255
102
RTVSPost2010PropOp44
 70
     1
102
RTVSPost2010Prop45
280
     0
102
RTVSPost2010PropOp45
 70
     1
102
RTVSPost2010Prop46
 90
       50
102
RTVSPost2010PropOp46
 70
     1
102
RTVSPost2010Prop47
 90
       50
102
RTVSPost2010PropOp47
 70
     1
102
RTVSPost2010Prop48
 90
       50
102
RTVSPost2010PropOp48
 70
     1
102
RTVSPost2010Prop49
280
     0
102
RTVSPost2010PropOp49
 70
     1
102
RTVSPost2010Prop50
 90
       50
102
RTVSPost2010PropOp50
 70
     1
102
RTVSPost2010Prop51ColorIndex
 90
      256
102
RTVSPost2010Prop51ColorRGB
 90
-16777216
102
RTVSPost2010PropOp51
 70
     0
102
RTVSPost2010Prop52
140
1.0
102
RTVSPost2010PropOp52
 70
     0
102
RTVSPost2010Prop53
 90
        2
102
RTVSPost2010PropOp53
 70
     1
102
RTVSPost2010Prop54
  1
strokes_ogs.tif
102
RTVSPost2010PropOp54
 70
     1
102
RTVSPost2010Prop55
280
     0
102
RTVSPost2010PropOp55
 70
     1
102
RTVSPost2010Prop56
140
1.0
102
RTVSPost2010PropOp56
 70
     1
102
RTVSPost2010Prop57
140
1.0
102
RTVSPost2010PropOp57
 70
     1
102
RTVSPropertyOp0
 70
     1
102
RTVSPropertyOp1
 70
     1
102
RTVSPropertyOp2
 70
     1
102
RTVSPropertyOp3
 70
     1
102
RTVSPropertyOp4
 70
     1
102
RTVSPropertyOp5
 70
     1
102
RTVSPropertyOp6
 70
     1
102
RTVSPropertyOp7
 70
     1
102
RTVSPropertyOp8
 70
     1
102
RTVSPropertyOp9
 70
     1
102
RTVSPropertyOp10
 70
     1
102
RTVSPropertyOp11
 70
     1
102
RTVSPropertyOp12
 70
     1
102
RTVSPropertyOp13
 70
     1
102
RTVSPropertyOp14
 70
     1
102
RTVSPropertyOp15
 70
     1
102
RTVSPropertyOp16
 70
     1
102
RTVSPropertyOp17
 70
     1
102
RTVSPropertyOp18
 70
     1
102
RTVSPropertyOp19
 70
     1
102
RTVSPropertyOp20
 70
     1
102
RTVSPropertyOp21
 70
     1
102
RTVSPropertyOp22
 70
     1
102
RTVSPropertyOp23
 70
     1
102
RTVSPropertyOp24
 70
     1
102
RTVSPropertyOp25
 70
     1
102
RTVSPropertyOp26
 70
     1
102
RTVSPropertyOp27
 70
     1
102
RTVSPropertyOp28
 70
     1
102
RTVSPropertyOp29
 70
     1
102
RTVSPropertyOp30
 70
     1
102
RTVSPropertyOp31
 70
     1
102
RTVSPropertyOp32
 70
     1
102
RTVSPropertyOp33
 70
     1
102
RTVSPropertyOp34
 70
     1
102
RTVSPropertyOp35
 70
     1
102
RTVSPropertyOp36
 70
     1
102
RTVSPropertyOp37
 70
     1
102
RTVSPropertyOp38
 70
     1
102
RTVSPropertyOp39
 70
     1
102
RTVSPropertyOp40
 70
     1
102
RTVSPropertyOp41
 70
     1
102
RTVSPropertyOp42
 70
     1
102
RTVSPropertyOp43
 70
     1
102
RTVSPropertyOp44
 70
     1
102
RTVSPropertyOp45
 70
     1
102
RTVSPropertyOp46
 70
     1
102
RTVSPropertyOp47
 70
     1
102
RTVSPropertyOp48
 70
     1
102
RTVSPropertyOp49
 70
     1
102
RTVSPropertyOp50
 70
     1
102
RTVSPropertyOp51
 70
     0
102
RTVSPropertyOp52
 70
     0
102
RTVSPropertyOp53
 70
     1
102
RTVSPropertyOp54
 70
     1
102
RTVSPropertyOp55
 70
     1
102
RTVSPropertyOp56
 70
     1
102
RTVSPropertyOp57
 70
     1
102
RTVSPropertyOp58
 70
     1
102
RTVSPropertyOp59
 70
     1
102
RTVSPropertyOp60
 70
     1
102
RTVSPropertyOp61
 70
     1
102
RTVSPropertyOp62
 70
     1
  0
XRECORD
  5
4B1
102
{ACAD_REACTORS
330
4B0
102
}
330
4B0
100
AcDbXrecord
280
     1
102
RTVSPost2010Prop28
280
     0
102
RTVSPost2010PropOp28
 70
     1
102
RTVSPost2010Prop29
280
     1
102
RTVSPost2010PropOp29
 70
     1
102
RTVSPost2010Prop30
280
     1
102
RTVSPost2010PropOp30
 70
     1
102
RTVSPost2010Prop31
280
     0
102
RTVSPost2010PropOp31
 70
     1
102
RTVSPost2010Prop32
280
     0
102
RTVSPost2010PropOp32
 70
     1
102
RTVSPost2010Prop33
280
     0
102
RTVSPost2010PropOp33
 70
     1
102
RTVSPost2010Prop34
280
     0
102
RTVSPost2010PropOp34
 70
     1
102
RTVSPost2010Prop35
280
     0
102
RTVSPost2010PropOp35
 70
     1
102
RTVSPost2010Prop36
280
     0
102
RTVSPost2010PropOp36
 70
     1
102
RTVSPost2010Prop37
 90
       50
102
RTVSPost2010PropOp37
 70
     1
102
RTVSPost2010Prop38
140
0.0
102
RTVSPost2010PropOp38
 70
     1
102
RTVSPost2010Prop39
140
1.0
102
RTVSPost2010PropOp39
 70
     1
102
RTVSPost2010Prop40
 90
        0
102
RTVSPost2010PropOp40
 70
     1
102
RTVSPost2010Prop41ColorIndex
 90
       18
102
RTVSPost2010Prop41ColorRGB
 90
        0
102
RTVSPost2010PropOp41
 70
     1
102
RTVSPost2010Prop42
 90
       50
102
RTVSPost2010PropOp42
 70
     1
102
RTVSPost2010Prop43
 90
        3
102
RTVSPost2010PropOp43
 70
     1
102
RTVSPost2010Prop44ColorIndex
 90
        5
102
RTVSPost2010Prop44ColorRGB
 90
      255
102
RTVSPost2010PropOp44
 70
     1
102
RTVSPost2010Prop45
280
     0
102
RTVSPost2010PropOp45
 70
     1
102
RTVSPost2010Prop46
 90
       50
102
RTVSPost2010PropOp46
 70
     1
102
RTVSPost2010Prop47
 90
       50
102
RTVSPost2010PropOp47
 70
     1
102
RTVSPost2010Prop48
 90
       50
102
RTVSPost2010PropOp48
 70
     1
102
RTVSPost2010Prop49
280
     0
102
RTVSPost2010PropOp49
 70
     1
102
RTVSPost2010Prop50
 90
       50
102
RTVSPost2010PropOp50
 70
     1
102
RTVSPost2010Prop51ColorIndex
 90
      256
102
RTVSPost2010Prop51ColorRGB
 90
-16777216
102
RTVSPost2010PropOp51
 70
     0
102
RTVSPost2010Prop52
140
1.0
102
RTVSPost2010PropOp52
 70
     0
102
RTVSPost2010Prop53
 90
        2
102
RTVSPost2010PropOp53
 70
     1
102
RTVSPost2010Prop54
  1
strokes_ogs.tif
102
RTVSPost2010PropOp54
 70
     1
102
RTVSPost2010Prop55
280
     0
102
RTVSPost2010PropOp55
 70
     1
102
RTVSPost2010Prop56
140
1.0
102
RTVSPost2010PropOp56
 70
     1
102
RTVSPost2010Prop57
140
1.0
102
RTVSPost2010PropOp57
 70
     1
102
RTVSPropertyOp0
 70
     1
102
RTVSPropertyOp1
 70
     1
102
RTVSPropertyOp2
 70
     1
102
RTVSPropertyOp3
 70
     1
102
RTVSPropertyOp4
 70
     1
102
RTVSPropertyOp5
 70
     1
102
RTVSPropertyOp6
 70
     1
102
RTVSPropertyOp7
 70
     1
102
RTVSPropertyOp8
 70
     1
102
RTVSPropertyOp9
 70
     1
102
RTVSPropertyOp10
 70
     1
102
RTVSPropertyOp11
 70
     1
102
RTVSPropertyOp12
 70
     1
102
RTVSPropertyOp13
 70
     1
102
RTVSPropertyOp14
 70
     1
102
RTVSPropertyOp15
 70
     1
102
RTVSPropertyOp16
 70
     1
102
RTVSPropertyOp17
 70
     1
102
RTVSPropertyOp18
 70
     1
102
RTVSPropertyOp19
 70
     1
102
RTVSPropertyOp20
 70
     1
102
RTVSPropertyOp21
 70
     1
102
RTVSPropertyOp22
 70
     1
102
RTVSPropertyOp23
 70
     1
102
RTVSPropertyOp24
 70
     1
102
RTVSPropertyOp25
 70
     1
102
RTVSPropertyOp26
 70
     1
102
RTVSPropertyOp27
 70
     1
102
RTVSPropertyOp28
 70
     1
102
RTVSPropertyOp29
 70
     1
102
RTVSPropertyOp30
 70
     1
102
RTVSPropertyOp31
 70
     1
102
RTVSPropertyOp32
 70
     1
102
RTVSPropertyOp33
 70
     1
102
RTVSPropertyOp34
 70
     1
102
RTVSPropertyOp35
 70
     1
102
RTVSPropertyOp36
 70
     1
102
RTVSPropertyOp37
 70
     1
102
RTVSPropertyOp38
 70
     1
102
RTVSPropertyOp39
 70
     1
102
RTVSPropertyOp40
 70
     1
102
RTVSPropertyOp41
 70
     1
102
RTVSPropertyOp42
 70
     1
102
RTVSPropertyOp43
 70
     1
102
RTVSPropertyOp44
 70
     1
102
RTVSPropertyOp45
 70
     1
102
RTVSPropertyOp46
 70
     1
102
RTVSPropertyOp47
 70
     1
102
RTVSPropertyOp48
 70
     1
102
RTVSPropertyOp49
 70
     1
102
RTVSPropertyOp50
 70
     1
102
RTVSPropertyOp51
 70
     0
102
RTVSPropertyOp52
 70
     0
102
RTVSPropertyOp53
 70
     1
102
RTVSPropertyOp54
 70
     1
102
RTVSPropertyOp55
 70
     1
102
RTVSPropertyOp56
 70
     1
102
RTVSPropertyOp57
 70
     1
102
RTVSPropertyOp58
 70
     1
102
RTVSPropertyOp59
 70
     1
102
RTVSPropertyOp60
 70
     1
102
RTVSPropertyOp61
 70
     1
102
RTVSPropertyOp62
 70
     1
  0
ENDSEC
  0
EOF
